Westside.S03E02.720p.HDTV.x264-FiHTV

DOWNLOAD TORRENT

Posted on July 17, 2017 in Series » Misc , verified torrent

Size: 941 MB , Seeds: 3 , Peers: 0 ( Updated September 19, 2017 - Refresh )

* Download via Magnet Link * To download files you need a Bittorrent Client ,

Scrape History ( seeds + peers )

Internal Files

Westside.S03E02.720p.HDTV.x264-FiHTV
Westside.S03E02.720p.HDTV.x264-FiHTV.mkv   936.69 MB
westside.s03e02.720p.hdtv.x264-fihtv.nfo   1.1 KB

Hash Code

9e8e4eb5058b6b6efb476759f76a3deab2ea2f15

Description

Westside.S03E02.720p.HDTV.x264-FiHTV

SCREENSHOT

Complete name : Westside.S03E02.720p.HDTV.x264-FiHTV.mkv
Format : Matroska
Format version : Version 4 / Version 2
File size : 937 MiB
Duration : 41 min 36 s
Overall bit rate : 3 147 kb/s
Encoded date : UTC 2017-07-17 11:13:17
Writing application : mkvmerge v11.0.0 ('Alive') 64bit
Writing library : libebml v1.3.4 + libmatroska v1.4.5

Video
ID : 1
Format : AVC
Format/Info : Advanced Video Codec
Format profile : [email protected]/* */
Format settings, CABAC : Yes
Format settings, ReFrames : 5 frames
Codec ID : V_MPEG4/ISO/AVC
Duration : 41 min 36 s
Bit rate : 2 761 kb/s
Width : 1 280 pixels
Height : 720 pixels
Display aspect ratio : 16:9
Frame rate mode : Constant
Frame rate : 25.000 FPS
Color space : YUV
Chroma subsampling : 4:2:0
Bit depth : 8 bits
Scan type : Progressive
Bits/(Pixel*Frame) : 0.120
Stream size : 822 MiB (88%)
Writing library : x264 core 152 r2851 ba24899
Encoding settings : cabac=1 / ref=5 / deblock=1:0:0 / analyse=0x3:0x133 / me=umh / subme=8 / psy=1 / psy_rd=1.00:0.00 / mixed_ref=1 / me_range=16 / chroma_me=1 / trellis=2 / 8x8dct=1 / cqm=0 / deadzone=21,11 / fast_pskip=1 / chroma_qp_offset=-2 / threads=18 / lookahead_threads=3 / sliced_threads=0 / nr=0 / decimate=1 / interlaced=0 / bluray_compat=0 / constrained_intra=0 / bframes=3 / b_pyramid=2 / b_adapt=1 / b_bias=0 / direct=3 / weightb=1 / open_gop=0 / weightp=2 / keyint=250 / keyint_min=25 / scenecut=40 / intra_refresh=0 / rc_lookahead=50 / rc=crf / mbtree=1 / crf=18.0 / qcomp=0.60 / qpmin=0 / qpmax=69 / qpstep=4 / ip_ratio=1.40 / aq=1:1.00
Language : English
Default : Yes
Forced : No
Color range : Limited
Matrix coefficients : BT.709

Audio
ID : 2
Format : AC-3
Format/Info : Audio Coding 3
Format settings, Endianness : Big
Codec ID : A_AC3
Duration : 41 min 36 s
Bit rate mode : Constant
Bit rate : 384 kb/s
Channel(s) : 6 channels
Channel positions : Front: L C R, Side: L R, LFE
Sampling rate : 48.0 kHz
Frame rate : 31.250 FPS (1536 spf)
Bit depth : 16 bits
Compression mode : Lossy
Stream size : 114 MiB (12%)
Service kind : Complete Main
Default : Yes
Forced : No

SCREENSHOT

SCREENSHOT

Click To View Screenshot

Click To View Screenshot

Click To View Screenshot

Torrent location

https://www.1337x.to/torrent/2320287/Westside-S03E02-720p-HDTV-x264-FiHTV/

Trackers

Refresh Leechers : Updated September 19, 2017

1. http://bigfoot1942.sektori.org:6969/announce

2. http://tracker2.wasabii.com.tw:6969/announce

3. http://tracker.mg64.net:6881/announce

4. http://bt.artvid.ru:6969/announce

5. http://open.acgtracker.com:1096/announce

6. http://tracker.opentrackr.org/announce

7. http://announce.torrentsmd.com:6969/announce

8. http://tracker.trackerfix.com/announce

9. http://tracker.opentrackr.org/announce

10. udp://tracker.openbittorrent.com:80/announce

11. udp://explodie.org:6969/announce

12. udp://mgtracker.org:6969/announce

13. udp://asnet.pw:2710/announce

14. udp://tracker.mgtracker.org:2710/announce

15. udp://tracker4.piratux.com:6969/announce

16. udp://tracker.trackerfix.com:80/announce

17. udp://tracker.pomf.se:80/announce

18. udp://torrent.gresille.org:80/announce

19. udp://tracker.x4w.co:6969/announce

20. udp://castradio.net:6969/announce

21. udp://p4p.arenabg.com:1337

22. udp://ipv4.tracker.harry.lu:80/announce

23. udp://inferno.demonoid.ooo:3389/announce

24. udp://tracker.sktorrent.net:6969/announce

25. udp://tracker.blackunicorn.xyz:6969/announce

26. udp://tracker.internetwarriors.net:1337/announce

27. udp://exodus.desync.com:6969/announce

28. udp://tracker.pirateparty.gr:6969/announce

29. udp://p4p.arenabg.ch:1337/announce

30. udp://glotorrents.pw:6969/announce

31. udp://eddie4.nl:6969/announce

32. udp://9.rarbg.me:2710/announce

33. udp://tracker.opentrackr.org:1337/announce

34. udp://tracker.zer0day.to:1337/announce

35. udp://tracker.trackerfix.com:80/announce

36. udp://9.rarbg.to:2710/announce

37. http://tracker.opentrackr.org:1337/announce

38. udp://tracker.leechers-paradise.org:6969/announce

39. udp://tracker.coppersurfer.tk:6969/announce

40. udp://tracker.zer0day.to:1337/announce

41. udp://public.popcorn-tracker.org:6969/announce

42. udp://tracker.grepler.com:6969/announce

43. udp://ipv4.tracker.harry.lu:80/announce

44. udp://9.rarbg.to:2710/announce

45. udp://9.rarbg.me:2710/announce

46. udp://p4p.arenabg.com:1337/announce

47. udp://p4p.arenabg.ch:1337/announce

48. udp://tracker.opentrackr.org:1337/announce

49. udp://tracker.leechers-paradise.org:6969/announce

50. udp://eddie4.nl:6969/announce

51. udp://shadowshq.yi.org:6969/announce

52. udp://tracker.pirateparty.gr:6969/announce

53. udp://tracker.coppersurfer.tk:6969/announce

Comments

You must log in to add a comment.

Embed Code

Sharing Widget

Related torrents

FILENAME SIZE SEEDS PEERS ADDED UPD
[i] Westside.S03E02.720p.HDTV.x264-FiHTV 941.02 MB 0 0 2 months 2 days

Top Series ( auto generated report )

FILENAME SIZE SEEDS PEERS ADDED UPD
[i] Rick.and.Morty.S03E08.720p.HDTV.x264-BATV [rarbg] 486.57 MB 9901 1336 3 days 2 days
[i] The.Last.Ship.S04E06.HDTV.x264-LOL [rarbg] 342.82 MB 2121 289 3 days 2 days
[i] The.69th.Annual.Primetime.Emmy.Awards.2017.x264-NoGRP 1.22 GB 2044 602 3 days 2 days
[i] Rick.and.Morty.S03E08.720p.HDTV.x264-BATV[eztv].mkv 486.57 MB 2043 542 3 days 2 days
[i] The.Strain.S04E10.HDTV.x264-SVA[ettv] 272.5 MB 1611 348 3 days 2 days
[i] The.Orville.S01E02.HDTV.x264-SVA[ettv] 266.09 MB 1522 80 1 day 15 hours
[i] Rick.and.Morty.S03E08.HDTV.x264-BATV[eztv].mkv 137.96 MB 1340 244 3 days 2 days
[i] The.Strain.S04E10.HDTV.x264-SVA 271.32 MB 1108 158 3 days 2 days
[i] UFC.Fight.Night.116.WEB-DL.H264 Fight-BB 1.75 GB 1010 143 4 days 3 days
[i] South.Park.S21E02.HDTV.x264-SVA[eztv].mkv 85.52 MB 977 298 17 hours 15 hours