War Dogs 2016 READNFO CAM X264 AC3 TiTAN.[PRiME]

DOWNLOAD TORRENT

Posted on August 26, 2016 in Movies » Comedy , verified torrent

Size: 707.2 MB , Seeds: 12 , Peers: 3 ( Updated October 29, 2016 - Refresh )

* Download via Magnet Link * To download files you need a Bittorrent Client ,

Scrape History ( seeds + peers )

Internal Files

War Dogs 2016 READNFO CAM X264 AC3 TiTAN.[PRiME]
Please Support!! Read More!!!.txt   150 Byte
Torrent Downloaded From 1337x.to.txt   32 Byte
War Dogs 2016 READNFO CAM X264 AC3 TiTAN[PRiME].mkv   699.12 MB

Hash Code

97fb62f684a811426c186ba83baa13b04eabf006

Description

War Dogs 2016 READNFO CAM X264 AC3 TiTAN.[PRiME]



SCREENSHOT



ImDb: http://www.imdb.com/title/tt2005151



SCREENSHOT



Found this source labeled a TS, not sure if audio is line, it is damn good so maybe it is, but decided to stay with cam. movie is complete no camera movement, but as all cams is dark throughout. did what i could to brighten up.

your probably not gonna watch on your 60 inch, but on smaller screens is very watchable. also has hard-coded English subs thru-ought.



General



Format : Matroska

Format version : Version 2

File size : 699 MiB

Duration : 1h 47mn

Overall bit rate mode : Variable

Overall bit rate : 913 Kbps



Video

ID : 1

Format : AVC

Format/Info : Advanced Video Codec

Format profile : [email protected]/* */

Format settings, CABAC : Yes

Format settings, ReFrames : 3 frames

Codec ID : V_MPEG4/ISO/AVC

Duration : 1h 47mn

Bit rate mode : Variable

Bit rate : 767 Kbps

Maximum bit rate : 40.0 Mbps

Width : 688 pixels

Height : 272 pixels

Display aspect ratio : 2.529

Frame rate mode : Constant

Frame rate : 25.000 fps

Color space : YUV

Chroma subsampling : 4:2:0

Bit depth : 8 bits

Scan type : Progressive

Bits/(Pixel*Frame) : 0.164

Stream size : 587 MiB (84%)

Default : Yes

Forced : No

Color primaries : BT.709

Transfer characteristics : BT.709

Matrix coefficients : BT.709



Audio

ID : 2

Format : AC-3

Format/Info : Audio Coding 3

Mode extension : CM (complete main)

Format settings, Endianness : Big

Codec ID : A_AC3

Duration : 1h 47mn

Bit rate mode : Constant

Bit rate : 128 Kbps

Channel(s) : 2 channels

Channel positions : Front: L R

Sampling rate : 44.1 KHz

Bit depth : 16 bits

Compression mode : Lossy

Stream size : 98.0 MiB (14%)

Language : English

Default : Yes

Forced : No




SCREENSHOT



Click Image To View Full Size



SCREENSHOT SCREENSHOT SCREENSHOT SCREENSHOT SCREENSHOT SCREENSHOTSCREENSHOT SCREENSHOT SCREENSHOT SCREENSHOT

Trackers

Refresh Leechers : Updated October 29, 2016

1. udp://tracker.coppersurfer.tk:6969/announce

2. udp://tracker.coppersurfer.tk:6969

3. udp://tracker.opentrackr.org:1337/announce

4. udp://zer0day.ch:1337/announce

5. udp://thetracker.org:80/announce

6. udp://tracker.aletorrenty.pl:2710/announce

7. udp://explodie.org:6969/announce

8. udp://p4p.arenabg.ch:1337/announce

9. udp://9.rarbg.to:2710/announce

10. udp://9.rarbg.me:2710/announce

11. udp://eddie4.nl:6969/announce

12. udp://tracker.sktorrent.net:6969/announce

13. udp://torrent.gresille.org:80/announce

14. udp://tracker.piratepublic.com:1337/announce

15. udp://tracker.leechers-paradise.org:6969/announce

Comments

You must log in to add a comment.

Embed Code

Sharing Widget

Related torrents

FILENAME SIZE SEEDS PEERS ADDED UPD
[i] War Dogs 2016 READNFO CAM X264 AC3 TiTAN 699.65 MB 7 0 11 months 9 months

Top Movies ( auto generated report )

FILENAME SIZE SEEDS PEERS ADDED UPD
[i] Baywatch (2017) [720p] [YTS AG] 896.85 MB 13374 13009 1 day 20 hours
[i] Baywatch (2017) [1080p] [YTS AG] 1.85 GB 11328 9572 1 day 20 hours
[i] Security (2017) [720p] [YTS AG] 680.08 MB 5527 2295 3 days 2 days
[i] Security (2017) [1080p] [YTS AG] 1.4 GB 4273 1851 3 days 2 days
[i] Inconceivable (2017) [720p] [YTS AG] 777.71 MB 3109 1605 1 day 4 hours
[i] What.Happened.to.Monday.2017.WEBRip.x264-FGT[rarbg] 1.06 GB 2846 1500 1 day 21 hours
[i] The Recall (2017) [720p] [YTS AG] 672.5 MB 2707 1910 1 day 20 hours
[i] The Recall (2017) [1080p] [YTS AG] 1.39 GB 2469 1416 1 day 20 hours
[i] Inconceivable (2017) [1080p] [YTS AG] 1.61 GB 2453 1236 1 day 4 hours
[i] Kill Switch (2017) [720p] [YTS AG] 677.18 MB 2270 801 5 days 2 days