War Dogs 2016 READNFO CAM X264 AC3 TiTAN

DOWNLOAD TORRENT

Posted on August 26, 2016 in Movies » Comedy , verified torrent

Size: 699.65 MB , Seeds: 4 , Peers: 0 ( Updated August 30, 2017 - Refresh )

* Download via Magnet Link * To download files you need a Bittorrent Client ,

Scrape History ( seeds + peers )

Internal Files

War Dogs 2016 READNFO CAM X264 AC3 TiTAN
Torrent Downloaded From TorrentsGroup.com.txt   143 Byte
War Dogs 2016 READNFO CAM X264 AC3 TiTAN.mkv   699.12 MB
War Dogs 2016 READNFO CAM X264 AC3 TiTAN.nfo   3.34 KB

Hash Code

1ea422bb94e44f1303b39fd967ca9d8f9de3df21

Description

SCREENSHOT

presents

SCREENSHOT

http://www.imdb.com/title/tt2005151/



Found this source labeled a TS, not sure if audio is line, it is damn good so maybe it is, but decided to stay with cam. movie is complete no camera movement, but as all cams is dark throughout. did what i could to brighten up.

your probably not gonna watch on your 60 inch, but on smaller screens is very watchable. also has hard-coded English subs thru-ought.



General



Format : Matroska

Format version : Version 2

File size : 699 MiB

Duration : 1h 47mn

Overall bit rate mode : Variable

Overall bit rate : 913 Kbps



Video

ID : 1

Format : AVC

Format/Info : Advanced Video Codec

Format profile : [email protected]/* */

Format settings, CABAC : Yes

Format settings, ReFrames : 3 frames

Codec ID : V_MPEG4/ISO/AVC

Duration : 1h 47mn

Bit rate mode : Variable

Bit rate : 767 Kbps

Maximum bit rate : 40.0 Mbps

Width : 688 pixels

Height : 272 pixels

Display aspect ratio : 2.529

Frame rate mode : Constant

Frame rate : 25.000 fps

Color space : YUV

Chroma subsampling : 4:2:0

Bit depth : 8 bits

Scan type : Progressive

Bits/(Pixel*Frame) : 0.164

Stream size : 587 MiB (84%)

Default : Yes

Forced : No

Color primaries : BT.709

Transfer characteristics : BT.709

Matrix coefficients : BT.709



Audio

ID : 2

Format : AC-3

Format/Info : Audio Coding 3

Mode extension : CM (complete main)

Format settings, Endianness : Big

Codec ID : A_AC3

Duration : 1h 47mn

Bit rate mode : Constant

Bit rate : 128 Kbps

Channel(s) : 2 channels

Channel positions : Front: L R

Sampling rate : 44.1 KHz

Bit depth : 16 bits

Compression mode : Lossy

Stream size : 98.0 MiB (14%)

Language : English

Default : Yes

Forced : No

Trackers

Refresh Leechers : Updated August 30, 2017

1. udp://tracker.coppersurfer.tk:6969/announce

2. udp://tracker.leechers-paradise.org:6969/announce

3. udp://tracker.coppersurfer.tk:80/announce

4. udp://tracker.coppersurfer.tk:6969

5. udp://p4p.arenabg.ch:1337/announce

6. udp://p4p.arenabg.com:1337/announce

7. udp://tracker.leechers-paradise.org:6969

8. udp://zer0day.ch:1337/announce

9. udp://eddie4.nl:6969/announce

10. udp://thetracker.org:80/announce

11. udp://explodie.org:6969/announce

12. udp://tracker.aletorrenty.pl:2710/announce

13. udp://torrent.gresille.org:80/announce

14. udp://9.rarbg.me:2710/announce

15. udp://9.rarbg.to:2710/announce

Comments

You must log in to add a comment.

Embed Code

Sharing Widget

Related torrents

FILENAME SIZE SEEDS PEERS ADDED UPD
[i] War Dogs 2016 READNFO CAM X264 AC3 TiTAN.[PRiME] 707.2 MB 2 3 1 year 3 weeks

Top Movies ( auto generated report )

FILENAME SIZE SEEDS PEERS ADDED UPD
[i] Shock Wave (2017) [720p] [YTS AG] 874.7 MB 2284 916 3 days 15 hours
[i] A Ghost Story (2017) [720p] [YTS AG] 679.19 MB 2726 2073 5 days 4 days
[i] Revolt (2017) [720p] [YTS AG] 652.79 MB 2424 1114 3 days 2 days
[i] A Ghost Story (2017) [1080p] [YTS AG] 1.4 GB 2395 913 4 days 3 days
[i] Shock Wave (2017) [1080p] [YTS AG] 1.8 GB 2310 1258 3 days 2 days
[i] The Bad Batch (2016) [720p] [YTS AG] 884.03 MB 2034 964 3 days 2 days
[i] The Book of Henry (2017) [720p] [YTS AG] 775.85 MB 2013 1579 2 days 1 day
[i] Killing.Gunther.2017.1080p.WEB-DL.DD5.1.H264-FGT 3.61 GB 1993 1371 3 days 2 days
[i] Berlin Syndrome (2017) [720p] [YTS AG] 810.27 MB 1949 1438 1 day 20 hours
[i] Goon Last of the Enforcers (2017) [720p] [YTS AG] 740.84 MB 1914 644 2 days 1 day