The Strain S02E05 Quick and Painless 1080p WEB-DL DD5.1 HEVC/x265-LGC mkv

DOWNLOAD TORRENT

Posted on September 14, 2015 in Series » Misc , verified torrent

Size: 672.07 MB , Seeds: 0 , Peers: 0 ( Updated August 30, 2017 - Refresh )

Could not find any peer statistics from any torrent tracker.
This does not mean the torrent is dead.

* Download via Magnet Link * To download files you need a Bittorrent Client ,

Scrape History ( seeds + peers )

Internal Files

The.Strain.S02E05.Quick.and.Painless.1080p.WEB-DL.DD5.1.H.265-LGC.mkv
The.Strain.S02E05.Quick.and.Painless.1080p.WEB-DL.DD5.1.H.265-LGC.mkv   671.76 MB

Hash Code

a96c89ca02b74affe28fb09c6b673fe863b6e2d3

Description

WARNING: High Efficiency Video Coding HEVC x265



Bit Bigger for Richer Sound



SCREENSHOT



The.Strain.S02E05.Quick.and.Painless.1080p.WEB-DL.DD5.1.H.265-LGC.mkv

Format : Matroska

Format version : Version 2

File size : 672 MiB

Duration : 46mn 33s

Overall bit rate : 2 017 Kbps

Encoded date : UTC

Writing application : HandBrake 0.10.2 2015060900

Writing library : Lavf55.12.0



Video

ID : 1

Format : HEVC

Format/Info : High Efficiency Video Coding

Format profile : [email protected]@Main

Codec ID : V_MPEGH/ISO/HEVC

Duration : 46mn 33s

Bit rate : 1 593 Kbps

Width : 1 920 pixels

Height : 1 088 pixels

Display aspect ratio : 16:9

Frame rate mode : Constant

Frame rate : 23.976 fps

Color space : YUV

Chroma subsampling : 4:2:0

Bit depth : 8 bits

Bits/(Pixel*Frame) : 0.032

Stream size : 531 MiB (79%)

Writing library : x265 1.5:[Windows][GCC 4.9.0][64 bit]

Encoding settings : wpp / ctu=32 / tu-intra-depth=1 / tu-inter-depth=1 / me=1 / subme=1 / merange=57 / no-rect / no-amp / max-merge=2 / temporal-mvp / early-skip / no-fast-cbf / rdpenalty=0 / no-tskip / no-tskip-fast / strong-intra-smoothing / no-lossless / no-cu-lossless / no-constrained-intra / fast-intra / open-gop / interlace=0 / keyint=240 / min-keyint=24 / scenecut=40 / rc-lookahead=15 / bframes=4 / bframe-bias=0 / b-adapt=0 / ref=1 / weightp / no-weightb / aq-mode=1 / aq-strength=1.00 / cbqpoffs=0 / crqpoffs=0 / rd=2 / psy-rd=0.30 / psy-rdoq=0.00 / signhide / lft / sao / no-sao-non-deblock / b-pyramid / no-cutree / rc=2 / pass / bitrate=1630 / qcomp=0.60 / qpmin=0 / qpmax=51 / qpstep=4 / cplxblur=20.0 / qblur=0.5 / ipratio=1.40 / pbratio=1.30

Default : Yes

Forced : No

Color range : Limited

Color primaries : BT.709

Transfer characteristics : BT.709

Matrix coefficients : BT.709



Audio

ID : 2

Format : AC-3

Format/Info : Audio Coding 3

Mode extension : CM (complete main)

Format settings, Endianness : Big

Codec ID : A_AC3

Duration : 46mn 33s

Bit rate mode : Constant

Bit rate : 384 Kbps

Channel(s) : 6 channels

Channel positions : Front: L C R, Side: L R, LFE

Sampling rate : 48.0 KHz

Compression mode : Lossy

Stream size : 128 MiB (19%)

Title : Surround

Language : English

Default : Yes

Forced : No



Text

ID : 3

Format : ASS

Codec ID : S_TEXT/ASS

Codec ID/Info : Advanced Sub Station Alpha

Compression mode : Lossless

Language : English

Default : No

Forced : No



SOURCE: The.Strain.S02E05.Quick.and.Painless.1080p.WEB-DL.DD5.1.H.264-Juggalotus

Torrent location

http://kat.cr/the-strain-s02e05-quick-and-painless-1080p-web-dl-dd5-1-hevc-x265-lgc-mkv-t11157940.html

Trackers

Refresh Leechers : Updated August 30, 2017

1. udp://open.demonii.com:1337/announce

2. udp://tracker.publicbt.com:80/announce

3. udp://tracker.openbittorrent.com:80/announce

4. udp://tracker.istole.it:80/announce

5. udp://9.rarbg.me:2710/announce

6. udp://tracker.opentrackr.org:1337/announce

Comments

You must log in to add a comment.

Embed Code

Sharing Widget

Related torrents

FILENAME SIZE SEEDS PEERS ADDED UPD
[i] The Strain S02E05 Quick and Painless 720p WEB-DL 2CH x265 HEVC-PSA 172.25 MB 1 0 2 years 3 weeks
[i] The Strain S02E05 Quick and Painless 1080p WEB-DL 6CH x265 HEVC-PSA 491.25 MB 0 1 2 years 3 weeks

Top Series ( auto generated report )

FILENAME SIZE SEEDS PEERS ADDED UPD
[i] Rick.and.Morty.S03E08.720p.HDTV.x264-BATV [rarbg] 486.57 MB 9901 1336 5 days 4 days
[i] The.Last.Ship.S04E06.HDTV.x264-LOL [rarbg] 342.82 MB 2121 289 5 days 4 days
[i] The.69th.Annual.Primetime.Emmy.Awards.2017.x264-NoGRP 1.22 GB 2044 602 5 days 4 days
[i] Rick.and.Morty.S03E08.720p.HDTV.x264-BATV[eztv].mkv 486.57 MB 2043 542 5 days 4 days
[i] Gotham.S04E01.HDTV.x264-LOL[eztv].mkv 240.91 MB 1977 329 1 day 20 hours
[i] The.Strain.S04E10.HDTV.x264-SVA[ettv] 272.5 MB 1611 348 5 days 4 days
[i] The.Orville.S01E02.HDTV.x264-SVA[ettv] 266.09 MB 1522 80 3 days 2 days
[i] The.Orville.S01E03.HDTV.x264-SVA [rarbg] 271.07 MB 1384 157 1 day 17 hours
[i] Rick.and.Morty.S03E08.HDTV.x264-BATV[eztv].mkv 137.96 MB 1340 244 5 days 4 days
[i] The.Strain.S04E10.HDTV.x264-SVA 271.32 MB 1108 158 5 days 4 days