The.Secret.Life.of.Pets.2016.720P.HDTS.x264.HQ.Hive-CM8

DOWNLOAD TORRENT

Posted on July 22, 2016 in Movies » Animation , verified torrent

Size: 2.64 GB , Seeds: 50 , Peers: 14 ( Updated July 26, 2017 - Refresh )

* Download via Magnet Link * To download files you need a Bittorrent Client ,

Scrape History ( seeds + peers )

Internal Files

The.Secret.Life.of.Pets.2016.720P.HDTS.x264.HQ.Hive-CM8
The.Secret.Life.of.Pets.2016.720P.HDTS.x264.HQ.Hive-CM8.mkv   2.58 GB
The.Secret.Life.of.Pets.2016.720P.HDTS.x264.HQ.Hive-CM8.nfo   5.2 KB
Torrent Downloaded From peertorrent.com.txt   338 Byte
sample.mkv   63.11 MB

Hash Code

8841b021fd5170d79a47830cec900da37b13bf93

Description

SCREENSHOT





http://www.imdb.com/title/tt2709768/





A terrier named Max's quiet life is upended when his owner takes in Duke, a stray, who Max instantly dislikes.



Directors: Yarrow Cheney, Chris Renaud

Writers: Cinco Paul, Ken Daurio

Stars: Louis C.K., Eric Stonestreet, Kevin Hart

Genres: Animation | Comedy | Family

Country: Japan | USA

Language: English





The.Secret.Life.of.Pets.2016.720P.HDTS.x264.HQ.Hive-CM8



Thx Hive



CM8 Doing It Right The First Time



Sources:



Video: 1080p HDCAM (cpg/daddy)

Audio: English Direct Line (cpg/daddy)

thx





Notes:

yep am still around if something needs to be fixed, and this one needed lots of work

Cam quality was damned perfect technically

first mins of the minion intro was oos from 12 up to 45 seconds since they were merged with different framerates,

5mins in theire was a 2minute video looping, wtf

both videos suffered from different interlace problems.

video was skewed



Encode:

fixed perspective

downsized to 720p - looks waybetter and more crisp

removed the interlaced frames from both videos

removed the video looping

fixed framerate for the intro video

fixed brightness,contrast,rgb relation,added sharpness

resynced audio

cleaned audio

removed cinavia



Quality is tested and optimized to look perfect on a 75" 4K TV.



got very nice and will do me till retail

enjoy







Video: 1280x672 @bitrate 4000-8000

Audio: English Direct Line AC3 2.0 Stereo

Sample: yes included





http://www.imdb.com/title/tt2709768





General

Complete name : The.Secret.Life.of.Pets.2016.720P.HDTS.x264.HQ.Hive-CM8.mkv

Format : Matroska

Format version : Version 2

File size : 2.58 GiB

Duration : 1h 23mn

Overall bit rate mode : Variable

Overall bit rate : 4 428 Kbps

Encoded date : UTC 2016-07-21 23:09:37

Writing application : mkvmerge v5.6.0 ('Kenya Kane') built on May 27 2012 16:44:04

Writing library : libebml v1.2.3 + libmatroska v1.3.0



Video

ID : 1

Format : AVC

Format/Info : Advanced Video Codec

Format profile : [email protected]/* */

Format settings, CABAC : Yes

Format settings, ReFrames : 4 frames

Format settings, GOP : M=4, N=33

Muxing mode : Header stripping

Codec ID : V_MPEG4/ISO/AVC

Duration : 1h 23mn

Bit rate mode : Variable

Bit rate : 3 892 Kbps

Maximum bit rate : 8 000 Kbps

Width : 1 280 pixels

Height : 672 pixels

Display aspect ratio : 1.905

Frame rate mode : Constant

Frame rate : 25.000 fps

Standard : PAL

Color space : YUV

Chroma subsampling : 4:2:0

Bit depth : 8 bits

Scan type : Progressive

Bits/(Pixel*Frame) : 0.181

Stream size : 2.26 GiB (88%)

Language : English

Default : Yes

Forced : No

Color primaries : BT.709

Transfer characteristics : BT.709

Matrix coefficients : BT.709

Color range : Limited



Audio

ID : 2

Format : AC-3

Format/Info : Audio Coding 3

Mode extension : CM (complete main)

Format settings, Endianness : Big

Muxing mode : Header stripping

Codec ID : A_AC3

Duration : 1h 23mn

Bit rate mode : Constant

Bit rate : 448 Kbps

Channel(s) : 2 channels

Channel positions : Front: L R

Sampling rate : 48.0 KHz

Bit depth : 16 bits

Compression mode : Lossy

Stream size : 267 MiB (10%)

Language : English

Default : Yes

Forced : No





SCREENSHOT SCREENSHOT SCREENSHOT SCREENSHOT SCREENSHOT SCREENSHOT SCREENSHOT SCREENSHOT SCREENSHOT

Trackers

Refresh Leechers : Updated July 26, 2017

1. udp://tracker.coppersurfer.tk:6969/announce

2. udp://thetracker.org:80/announce

3. udp://tracker.coppersurfer.tk:6969

4. udp://tracker.leechers-paradise.org:6969/announce

5. udp://eddie4.nl:6969/announce

6. udp://zer0day.ch:1337/announce

7. udp://tracker.sktorrent.net:6969/announce

8. udp://9.rarbg.me:2710/announce

9. udp://9.rarbg.to:2710/announce

10. udp://torrent.gresille.org:80/announce

11. udp://tracker.aletorrenty.pl:2710/announce

12. udp://tracker.piratepublic.com:1337/announce

13. udp://tracker.opentrackr.org:1337/announce

14. udp://explodie.org:6969/announce

15. udp://p4p.arenabg.ch:1337/announce

Comments

You must log in to add a comment.

Embed Code

Sharing Widget

Related torrents

FILENAME SIZE SEEDS PEERS ADDED UPD
[i] The Secret Life of Pets (2016) 720p HDRip 700MB - MkvCage 702.3 MB 754 71 11 months 9 months
[i] The Secret Life of Pets (2016) 720p HDRiP - 750MB - ShAaNiG 757.3 MB 321 13 11 months 2 weeks
[i] The Secret Life of Pets - Pets - Vita da animali (2016).H264.Italian.English.Ac3.5.1.sub.ita.iCV-MIRCrew
posted by robbyrs in Movies - Animation
1.25 GB 254 9 9 months 3 months
[i] The Secret life of Pets NEW HD-TS x264 AC3-DADDY 1.34 GB 212 29 1 year 3 weeks
[i]
[i]
The Secret Life of Walter Mitty (2013) 720p BrRip x264 - YIFY
Movies - Adventure , Quality: Audio 9/10 - Video 9/10
866.5 MB 181 14 3 years 1 month
[i]
[i]
The Secret Life of Walter Mitty (2013) 1080p BrRip x264 - YIFY
Movies - Drama , Quality: Audio 9/10 - Video 9/10
1.85 GB 135 20 3 years 1 month
[i] The.Secret.Life.of.Pets.2016.BRRip.XViD-ETRG 710.3 MB 129 37 9 months 3 months
[i] The Secret Life of Pets 2016 1080p HDRIP x264 AC3 TiTAN 3.43 GB 115 15 11 months 9 months
[i] The.Secret.Life.of.Pets.2016.1080p.BluRay.DTS.x264-ETRG 4.09 GB 94 28 8 months 3 months
[i] The.Secret.Life.of.Pets.2016.HDRiP.AAC-LC.x264-LEGi0N 1.48 GB 88 13 11 months 9 months

Top Movies ( auto generated report )

FILENAME SIZE SEEDS PEERS ADDED UPD
[i] Kill Switch (2017) [720p] [YTS AG] 677.18 MB 2584 1316 1 day 22 hours
[i] Baywatch.2017.720p.WEB-DL.H264.AC3-EVO[EtHD] 3.59 GB 2236 653 1 day 14 hours
[i] Baywatch.2017.WEB-DL.XviD.MP3-FGT [rarbg] 1.47 GB 2176 806 1 day 21 hours
[i] The Ottoman Lieutenant (2017) [720p] [YTS AG] 815.1 MB 2057 678 5 days 2 days
[i] The Ottoman Lieutenant (2017) [1080p] [YTS AG] 1.68 GB 1993 742 5 days 2 days
[i] Baywatch.2017.WEB-DL.x264-FGT [rarbg] 1016.65 MB 1654 782 1 day 21 hours
[i] The Sense of an Ending (2017) [720p] [YTS AG] 802.09 MB 1253 611 2 days 1 day
[i] Titanic (1997) [1080p] [YTS AG] 2.97 GB 1036 647 4 days 2 days
[i] Anarchist from Colony (2017) 720p HDRip 750MB Ganool 950.38 MB 1018 402 3 days 2 days
[i] The Sense of an Ending (2017) [1080p] [YTS AG] 1.66 GB 1015 455 2 days 1 day