The.Legend.of.Tarzan.2016.HDTS.XviD-VAiN

DOWNLOAD TORRENT

Posted on July 10, 2016 in Movies » Action , verified torrent

Size: 1.48 GB , Seeds: 56 , Peers: 18 ( Updated July 14, 2017 - Refresh )

Quality: Audio 6/10 - Video 6/10 ( defined by users )

* Download via Magnet Link * To download files you need a Bittorrent Client ,

Scrape History ( seeds + peers )

Internal Files

The.Legend.of.Tarzan.2016.HDTS.XviD-VAiN
The.Legend.of.Tarzan.2016.HDTS.XviD-VAiN.avi   1.47 GB
Torrent Downloaded From peertorrent.com.txt   338 Byte
VAiN.nfo   2.92 KB
sample.avi   12.85 MB

Hash Code

3aa467d01eaf8fbbcd35828f3c07aa91ec028217

Description

SCREENSHOT





http://www.imdb.com/title/tt0918940/





Tarzan, having acclimated to life in London, is called back to his former home in the jungle to investigate the activities at a mining encampment.



Director: David Yates

Writers: Adam Cozad (screenplay), Craig Brewer (screenplay)

Stars: Alexander SkarsgÄrd, Rory J. Saper, Christian Stevens

Genres: Action | Adventure

Country: USA

Language: English





Basic Information

Format : AVI

Format/Info : Audio Video Interleave

File size : 1.47 GiB

Duration : 1h 45mn

Overall bit rate : 1 990 Kbps

Writing application : VirtualDubMod 1.5.10.2 (build 2540/release)

Writing library : VirtualDubMod build 2540/release



Video

ID : 0

Format : MPEG-4 Visual

Format profile : Advanced [email protected]/* */

Format settings, BVOP : 2

Format settings, QPel : No

Format settings, GMC : No warppoints

Format settings, Matrix : Default (H.263)

Muxing mode : Packed bitstream

Codec ID : XVID

Codec ID/Hint : XviD

Duration : 1h 45mn

Bit rate : 1 786 Kbps

Width : 720 pixels

Height : 304 pixels

Display aspect ratio : 2.35:1

Frame rate : 30.000 fps

Color space : YUV

Chroma subsampling : 4:2:0

Bit depth : 8 bits

Scan type : Progressive

Compression mode : Lossy

Bits/(Pixel*Frame) : 0.272

Stream size : 1.32 GiB (90%)

Writing library : XviD 64



Audio

ID : 1

Format : MPEG Audio

Format version : Version 1

Format profile : Layer 3

Mode : Joint stereo

Mode extension : MS Stereo

Codec ID : 55

Codec ID/Hint : MP3

Duration : 1h 45mn

Bit rate mode : Constant

Bit rate : 192 Kbps

Channel(s) : 2 channels

Sampling rate : 48.0 KHz

Compression mode : Lossy

Stream size : 145 MiB (10%)

Alignment : Aligned on interleaves

Interleave, duration : 33 ms (1.00 video frame)

Interleave, preload duratio : 504 ms





E N C O D E R S . N O T E S . . .



SOURCE......: ViDEO...X264-CPG

............: AUDiO...X264-CPG

SAMPLE......: Yippers

ADDED NOTE..: Love Me.... Love You...

Took sum ol' poo-shine and polished this turd....





SCREENSHOT SCREENSHOT SCREENSHOT SCREENSHOT SCREENSHOT SCREENSHOT

Trackers

Refresh Leechers : Updated July 14, 2017

1. udp://tracker.coppersurfer.tk:6969/announce

2. udp://thetracker.org:80/announce

3. udp://tracker.coppersurfer.tk:6969

4. udp://tracker.leechers-paradise.org:6969/announce

5. udp://eddie4.nl:6969/announce

6. udp://zer0day.ch:1337/announce

7. udp://tracker.sktorrent.net:6969/announce

8. udp://9.rarbg.me:2710/announce

9. udp://9.rarbg.to:2710/announce

10. udp://torrent.gresille.org:80/announce

11. udp://tracker.aletorrenty.pl:2710/announce

12. udp://tracker.piratepublic.com:1337/announce

13. udp://tracker.opentrackr.org:1337/announce

14. udp://explodie.org:6969/announce

15. udp://p4p.arenabg.ch:1337/announce

Comments

You must log in to add a comment.

tushar •167 2016-07-11 17:05:31

AUDIO: 6 - VIDEO: 6

Thank you for sharing

Embed Code

Sharing Widget

Related torrents

FILENAME SIZE SEEDS PEERS ADDED UPD
[i] The Legend of Tarzan (2016) 1080p BluRay - 6CH - 2GB - ShAaNiG 1.98 GB 388 29 1 year 3 days
[i]
[i]
The Legend of Tarzan 2016 HD-TS x264-CPG
Movies - Action , Quality: Audio 6/10 - Video 6/10
1.75 GB 329 52 1 year 2 months
[i] The Legend of Tarzan (2016).H264.Italian.English.Ac3.5.1.sub.ita.eng.iCV-MIRCrew
posted by robbyrs in Movies - Fantasy
1.67 GB 89 11 10 months 2 days
[i] The Legend of Tarzan (2016) 1080p HC HDRip 1.6GB - MkvCage 1.66 GB 71 7 1 year 1 month
[i]
[i]
The Legend of Tarzan (2016) CAM-Rip [RUSSIAN]
Movies - Adventure , Quality: Audio 7/10 - Video 7/10
1.37 GB 69 9 1 year 2 months
[i] The.Legend.of.Tarzan.2016.HDRip.XViD.AC3-ETRG 1.39 GB 60 15 1 year 2 weeks
[i] The Legend of Tarzan (2016) HC - 720p HDRiP - 950MB - ShAaNiG 951.3 MB 55 2 1 year 1 month
[i] The Legend Of Tarzan 2016 iTALiAN BDRip XviD-CYBER
posted by monello78 in Movies - Adventure
1.37 GB 52 4 10 months 2 days
[i] The Legend of Tarzan (2016) [3D] [YTS AG] 1.68 GB 44 11 3 months 5 days
[i]
[i]
The Legend of Tarzan 2016 1080p HDRip KORSUB x264 AAC[PRiME]
Movies - Action , Quality: Audio 10/10 - Video 9/10
3.02 GB 32 6 1 year 1 month

Top Movies ( auto generated report )

FILENAME SIZE SEEDS PEERS ADDED UPD
[i] Despicable Me 3 (2017) [1080p] [YTS AG] 1.36 GB 8482 3984 5 days 2 days
[i] Despicable Me 3 (2017) [720p] [YTS AG] 658.36 MB 7029 2538 5 days 21 hours
[i] Shock Wave (2017) [720p] [YTS AG] 874.7 MB 3224 1942 2 days 1 day
[i] A Ghost Story (2017) [720p] [YTS AG] 679.19 MB 2726 2073 4 days 3 days
[i] Revolt (2017) [720p] [YTS AG] 652.79 MB 2424 1114 2 days 1 day
[i] A Ghost Story (2017) [1080p] [YTS AG] 1.4 GB 2395 913 3 days 2 days
[i] Shock Wave (2017) [1080p] [YTS AG] 1.8 GB 2310 1258 2 days 1 day
[i] The Bad Batch (2016) [720p] [YTS AG] 884.03 MB 2034 964 2 days 1 day
[i] Killing.Gunther.2017.1080p.WEB-DL.DD5.1.H264-FGT 3.61 GB 1993 1371 2 days 1 day
[i] Goon Last of the Enforcers (2017) [720p] [YTS AG] 740.84 MB 1914 644 1 day 22 hours