The Legend of Tarzan - 2016 - CAM - English - x264 - AAC - Makintos13

DOWNLOAD TORRENT

Posted on July 3, 2016 in Movies » Adventure , verified torrent

Size: 699.07 MB , Seeds: 31 , Peers: 3 ( Updated July 7, 2017 - Refresh )

Quality: Audio 4/10 - Video 4/10 ( defined by users )

* Download via Magnet Link * To download files you need a Bittorrent Client ,

Scrape History ( seeds + peers )

Internal Files

The Legend of Tarzan - 2016 - CAM - English - x264 - AAC - Makintos13.mkv
The Legend of Tarzan - 2016 - CAM - English - x264 - AAC - Makintos13.mkv   698.82 MB

Hash Code

c3c1eb964a4a1dd1b5bf2dfb1fa683b29e1c8899

Description

The Legend of Tarzan - 2016 - CAM - English - x264 - AAC - Makintos13



SCREENSHOT





Format : Matroska

Format version : Version 4 / Version 2

File size : 699 MiB

Duration : 1h 39mn

Overall bit rate : 979 Kbps



Video

ID : 2

Format : AVC

Format/Info : Advanced Video Codec

Format profile : [email protected]/* */

Format settings, CABAC : Yes

Format settings, ReFrames : 4 frames

Codec ID : V_MPEG4/ISO/AVC

Duration : 1h 39mn

Bit rate : 912 Kbps

Width : 720 pixels

Height : 480 pixels

Display aspect ratio : 3:2

Frame rate mode : Constant

Frame rate : 23.976 (24000/1001) fps

Color space : YUV

Chroma subsampling : 4:2:0

Bit depth : 8 bits

Scan type : Progressive

Bits/(Pixel*Frame) : 0.110

Stream size : 651 MiB (93%)

Default : Yes

Forced : No




Audio

ID : 1

Format : AAC

Format/Info : Advanced Audio Codec

Format profile : LC

Codec ID : A_AAC

Duration : 1h 39mn

Bit rate : 64.4 Kbps

Channel(s) : 2 channels

Channel positions : Front: L R

Sampling rate : 48.0 KHz

Frame rate : 46.875 fps (1024 spf)

Compression mode : Lossy

Delay relative to video : 62ms

Stream size : 46.0 MiB (7%)

Title : Stereo

Default : Yes

Forced : No




www.imdb.com/title/tt0918940/





Screens:



SCREENSHOT SCREENSHOT SCREENSHOT SCREENSHOT SCREENSHOT SCREENSHOT SCREENSHOT

Trackers

Refresh Leechers : Updated July 7, 2017

1. udp://tracker.coppersurfer.tk:6969/announce

2. udp://tracker.coppersurfer.tk:6969

3. udp://tracker.opentrackr.org:1337/announce

4. udp://tracker.leechers-paradise.org:6969/announce

5. udp://eddie4.nl:6969/announce

6. udp://tracker.leechers-paradise.org:6969

7. udp://zer0day.ch:1337/announce

8. udp://tracker.aletorrenty.pl:2710/announce

9. udp://p4p.arenabg.ch:1337/announce

10. udp://9.rarbg.me:2710/announce

11. udp://tracker.sktorrent.net:6969/announce

12. udp://explodie.org:6969/announce

13. udp://tracker.trackerfix.com:80/announce

14. udp://9.rarbg.to:2710/announce

15. udp://tracker.piratepublic.com:1337/announce

Comments

You must log in to add a comment.

nutty26 •203 2016-07-05 23:13:09
thanks but ill wait,coz a movie like this it has to be clear,thank you alot,
Orwell •265 2016-07-04 06:20:20

AUDIO: 4 - VIDEO: 4

Not the best copy

Embed Code

Sharing Widget

Related torrents

FILENAME SIZE SEEDS PEERS ADDED UPD
[i] The Legend of Tarzan (2016) 1080p BluRay - 6CH - 2GB - ShAaNiG 1.98 GB 770 89 10 months 3 months
[i] The.Legend.of.Tarzan.2016.HDRip.XViD.AC3-ETRG 1.39 GB 736 257 11 months 9 months
[i]
[i]
The Legend of Tarzan 2016 HD-TS x264-CPG
Movies - Action , Quality: Audio 6/10 - Video 6/10
1.75 GB 329 52 1 year 1 month
[i] The.Legend.of.Tarzan.2016.BRRip.XViD-ETRG 705.3 MB 235 84 10 months 9 months
[i] The Legend of Tarzan 2016 1080p WEB-DL x264 AC3-JYK 3.02 GB 207 10 10 months 9 months
[i] The Legend of Tarzan (2016).H264.Italian.English.Ac3.5.1.sub.ita.eng.iCV-MIRCrew
posted by robbyrs in Movies - Fantasy
1.67 GB 137 18 9 months 4 months
[i] The.Legend.of.Tarzan.2016.720p.HDRIP.x264.AAC-SHOWSCEN 2.87 GB 119 18 11 months 9 months
[i] The.Legend.of.Tarzan.2016.720p.WEBRip.x264.AAC-ETRG 825.3 MB 111 12 10 months 9 months
[i] The Legend of Tarzan (2016) 720p HDRip 850MB - MkvCage 852.3 MB 108 36 11 months 9 months
[i] The Legend of Tarzan 2016 1080p Blu-Ray x264 DDS 5.1 Sub -DDR 4.15 GB 91 43 10 months 9 months

Top Movies ( auto generated report )

FILENAME SIZE SEEDS PEERS ADDED UPD
[i] Kill Switch (2017) [720p] [YTS AG] 677.18 MB 2584 1316 1 day 22 hours
[i] Baywatch.2017.720p.WEB-DL.H264.AC3-EVO[EtHD] 3.59 GB 2236 653 1 day 14 hours
[i] Baywatch.2017.WEB-DL.XviD.MP3-FGT [rarbg] 1.47 GB 2176 806 1 day 21 hours
[i] The Ottoman Lieutenant (2017) [720p] [YTS AG] 815.1 MB 2057 678 5 days 2 days
[i] The Ottoman Lieutenant (2017) [1080p] [YTS AG] 1.68 GB 1993 742 5 days 2 days
[i] Baywatch.2017.WEB-DL.x264-FGT [rarbg] 1016.65 MB 1654 782 1 day 21 hours
[i] The Sense of an Ending (2017) [720p] [YTS AG] 802.09 MB 1253 611 2 days 1 day
[i] Titanic (1997) [1080p] [YTS AG] 2.97 GB 1036 647 4 days 2 days
[i] Anarchist from Colony (2017) 720p HDRip 750MB Ganool 950.38 MB 1018 402 3 days 2 days
[i] The Sense of an Ending (2017) [1080p] [YTS AG] 1.66 GB 1015 455 2 days 1 day