The Jungle Book 2016 1080p BluRay x246 Dual-Audio [English DTS-HDMA 7.1][Hindi 5.1]...Hon3y

DOWNLOAD TORRENT

Posted on August 28, 2016 in Movies » Misc , verified torrent

Size: 14.83 GB , Seeds: 6 , Peers: 3 ( Updated September 4, 2017 - Refresh )

* Download via Magnet Link * To download files you need a Bittorrent Client ,

Scrape History ( seeds + peers )

Internal Files

The Jungle Book 2016 1080p BluRay x246 Dual-Audio [English DTS-HDMA 7.1][Hindi 5.1]...Hon3y
Hon3yHD.com.txt   39 Byte
The Jungle Book 2016 1080p BluRay x246 Dual-Audio [English DTS-HDMA 7.1][Hindi 5.1]...Hon3y.mkv   14.83 GB

Hash Code

8f91ab8c166584d23199bbcaf990fd31d3d7db53

Description

SCREENSHOT



R3al_Star is now as R3al_Warrior



The Jungle Book 2016 1080p BluRay x246 Dual-Audio [English DTS-HDMA 7.1][Hindi 5.1]...Hon3y





Format : Matroska

Format version : Version 4 / Version 2

File size : 14.8 GiB

Duration : 1 h 45 min

Overall bit rate : 20.0 Mb/s

Movie name : Hon3yHD



Video

ID : 1

Format : AVC

Format/Info : Advanced Video Codec

Format profile : [email protected]/* */

Format settings, CABAC : Yes

Format settings, ReFrames : 4 frames

Codec ID : V_MPEG4/ISO/AVC

Duration : 1 h 45 min

Bit rate : 14.0 Mb/s

Width : 1 920 pixels

Height : 1 040 pixels

Display aspect ratio : 1.85:1

Frame rate mode : Constant

Frame rate : 23.976 (24000/1001) FPS

Color space : YUV

Chroma subsampling : 4:2:0

Bit depth : 8 bits

Scan type : Progressive

Bits/(Pixel*Frame) : 0.293

Stream size : 10.4 GiB (70%)

Title : R3al_Warrior...Hon3yHD



Audio #1

ID : 2

Format : AC-3

Format/Info : Audio Coding 3

Mode extension : CM (complete main)

Format settings, Endianness : Big

Codec ID : A_AC3

Duration : 1 h 45 min

Bit rate mode : Constant

Bit rate : 640 kb/s

Channel(s) : 6 channels

Channel positions : Front: L C R, Side: L R, LFE

Sampling rate : 48.0 kHz

Frame rate : 31.250 FPS (1536 spf)

Compression mode : Lossy

Stream size : 485 MiB (3%)

Title : Hindi---R3al_Warrior...Hon3yHD

Language : Hindi

Default : Yes

Forced : Yes



Audio #2

ID : 3

Format : DTS

Format/Info : Digital Theater Systems

Format profile : MA / Core

Mode : 16

Format settings, Endianness : Big

Codec ID : A_DTS

Duration : 1 h 45 min

Bit rate mode : Variable / Constant

Bit rate : 5 356 kb/s / 1 509 kb/s

Channel(s) : 8 channels / 6 channels

Channel positions : Front: L C R, Side: L R, Back: L R, LFE / Front: L C R, Side: L R, LFE

Sampling rate : 48.0 kHz

Frame rate : 93.750 FPS (512 spf)

Bit depth : 24 bits

Compression mode : Lossless / Lossy

Stream size : 3.96 GiB (27%)

Title : English---R3al_Warrior...Hon3yHD

Language : English

Default : No

Forced : No



Text #1

ID : 4

Format : PGS

Muxing mode : zlib

Codec ID : S_HDMV/PGS

Codec ID/Info : Picture based subtitle format used on BDs/HD-DVDs

Duration : 1 h 44 min

Bit rate : 10.6 kb/s

Count of elements : 2822

Stream size : 7.94 MiB (0%)

Title : English---R3al_Warrior...Hon3yHD

Language : English

Default : No

Forced : No



Text #2

ID : 5

Format : PGS

Muxing mode : zlib

Codec ID : S_HDMV/PGS

Codec ID/Info : Picture based subtitle format used on BDs/HD-DVDs

Duration : 1 h 45 min

Bit rate : 23.6 kb/s

Count of elements : 4090

Stream size : 17.8 MiB (0%)

Title : English---R3al_Warrior...Hon3yHD

Language : English

Default : No

Forced : No



Menu

00:00:00.000 : en:00:00:00.000

00:00:48.215 : en:00:00:48.215

00:05:15.315 : en:00:05:15.315

00:09:02.459 : en:00:09:02.459

00:12:42.178 : en:00:12:42.178

00:16:34.452 : en:00:16:34.452

00:21:20.029 : en:00:21:20.029

00:27:15.133 : en:00:27:15.133

00:35:04.144 : en:00:35:04.144

00:43:21.724 : en:00:43:21.724

00:48:05.132 : en:00:48:05.132

00:53:29.248 : en:00:53:29.248

00:58:03.271 : en:00:58:03.271

01:05:46.442 : en:01:05:46.442

01:10:35.523 : en:01:10:35.523

01:17:01.325 : en:01:17:01.325

01:20:48.927 : en:01:20:48.927

01:24:46.540 : en:01:24:46.540

01:30:32.969 : en:01:30:32.969

01:35:53.206 : en:01:35:53.206





SCREENSHOT SCREENSHOT SCREENSHOT SCREENSHOT SCREENSHOT SCREENSHOT SCREENSHOT SCREENSHOT SCREENSHOT SCREENSHOT SCREENSHOT SCREENSHOT SCREENSHOT SCREENSHOT SCREENSHOT SCREENSHOT SCREENSHOT SCREENSHOT SCREENSHOT SCREENSHOT SCREENSHOT SCREENSHOT

Trackers

Refresh Leechers : Updated September 4, 2017

1. udp://tracker.coppersurfer.tk:6969/announce

2. udp://tracker.coppersurfer.tk:6969

3. udp://tracker.opentrackr.org:1337/announce

4. udp://tracker.aletorrenty.pl:2710/announce

5. udp://p4p.arenabg.ch:1337/announce

6. udp://9.rarbg.me:2710/announce

7. udp://9.rarbg.to:2710/announce

8. udp://eddie4.nl:6969/announce

9. udp://tracker.leechers-paradise.org:6969/announce

10. udp://explodie.org:6969/announce

11. udp://zer0day.ch:1337/announce

12. udp://torrent.gresille.org:80/announce

13. udp://tracker.sktorrent.net:6969/announce

14. udp://thetracker.org:80/announce

15. udp://tracker.piratepublic.com:1337/announce

Comments

You must log in to add a comment.

Embed Code

Sharing Widget

Related torrents

FILENAME SIZE SEEDS PEERS ADDED UPD
[i] The.Jungle.Book.2016.TRUEFRENCH.BDRIP.XViD-eVe 1.35 GB 913 23 1 year 1 month
[i] The Jungle Book 2016 1080p BluRay x264 DTS-JYK 2.68 GB 621 125 1 year 1 month
[i]
[i]
The Jungle Book (2016) NEW - 720p HDTS - 900MB - ShAaNiG
Movies - Adventure , Quality: Audio 8/10 - Video 8/10
900.3 MB 382 15 1 year 1 week
[i]
[i]
The.Jungle.Book.2016.720p.BRRip.x264.AAC-ETRG
Movies - Adventure , Quality: Audio 10/10 - Video 10/10
833.3 MB 316 12 1 year 1 month
[i]
[i]
The.Jungle.Book.2016.Complete.HDTS.XVID.AC3.HQ.Hive-CM8
Movies - Adventure , Quality: Audio 7/10 - Video 6/10
1.38 GB 82 3 1 year 1 week
[i] The Jungle Book - Il Libro della Giungla (2016).H264.Italian.English.Ac3.5.1.sub.Ita.Eng.iCV-MIRCrew
posted by robbyrs in Movies - Adventure
1.47 GB 77 3 1 year 1 month
[i] The Jungle Book (2016) 1080p HDTC - 1.75GB - ShAaNiG 1.75 GB 66 3 1 year 6 days
[i] The.Jungle.Book.2016.1080p.TC.X264.Masteredition.Hive-CM8 3.97 GB 54 11 1 year 6 days
[i] The.Jungle.Book.2016.BRRip.XViD-ETRG 715.3 MB 40 14 1 year 1 month
[i] The.Jungle.Book.2016.1080p.BluRay.x264.DTS-FGT 6.81 GB 38 6 1 year 1 month

Top Movies ( auto generated report )

FILENAME SIZE SEEDS PEERS ADDED UPD
[i] Despicable Me 3 (2017) [1080p] [YTS AG] 1.36 GB 8482 3984 4 days 1 day
[i] Despicable Me 3 (2017) [720p] [YTS AG] 658.36 MB 7211 2899 4 days 12 hours
[i] Shock Wave (2017) [720p] [YTS AG] 874.7 MB 3224 1942 1 day 15 hours
[i] A Ghost Story (2017) [720p] [YTS AG] 679.19 MB 2726 2073 3 days 2 days
[i] Revolt (2017) [720p] [YTS AG] 652.79 MB 2424 1114 1 day 15 hours
[i] A Ghost Story (2017) [1080p] [YTS AG] 1.4 GB 2395 913 2 days 1 day
[i] Shock Wave (2017) [1080p] [YTS AG] 1.8 GB 2310 1258 1 day 15 hours
[i] The Bad Batch (2016) [720p] [YTS AG] 884.03 MB 2034 964 1 day 15 hours
[i] Killing.Gunther.2017.1080p.WEB-DL.DD5.1.H264-FGT 3.61 GB 1993 1371 1 day 14 hours
[i] Revolt (2017) [1080p] [YTS AG] 1.34 GB 1910 836 1 day 15 hours