Terminus 2015 720p BRRip XviD AC3-RARBG

DOWNLOAD TORRENT

Posted on March 16, 2016 in Movies » Misc , verified torrent

Size: 2.06 GB , Seeds: 0 , Peers: 0 ( Updated September 6, 2017 - Refresh )

Could not find any peer statistics from any torrent tracker.
This does not mean the torrent is dead.

* Download via Magnet Link * To download files you need a Bittorrent Client ,

Scrape History ( seeds + peers )

Internal Files

Terminus.2015.720p.BRRip.XviD.AC3-RARBG
RARBG.COM.avi   1.14 MB
RARBG.COM.txt   34 Byte
Terminus.2015.720p.BRRip.XviD.AC3-RARBG.avi   2.06 GB
Terminus.2015.720p.BRRip.XviD.AC3-RARBG.nfo   2.98 KB

Hash Code

ca37bdb193fc8119823f3ab4003c3ad35055d1eb

Description



https://rarbg.to

Terminus.2015.720p.BRRip.XviD.AC3-RARBG



SCREENSHOT

Screens :



SCREENSHOT



SCREENSHOT



SCREENSHOT



SCREENSHOT



SCREENSHOT

Mediainfo :



Video

ID : 0

Format : MPEG-4 Visual

Format profile : [email protected]

Format settings, BVOP : No

Format settings, QPel : No

Format settings, GMC : No warppoints

Format settings, Matrix : Default (H.263)

Codec ID : XVID

Codec ID/Hint : XviD

Duration : 1h 33mn

Bit rate : 2 488 Kbps

Width : 1 280 pixels

Height : 534 pixels

Display aspect ratio : 2.40:1

Frame rate : 23.976 fps

Color space : YUV

Chroma subsampling : 4:2:0

Bit depth : 8 bits

Scan type : Progressive

Compression mode : Lossy

Bits/(Pixel*Frame) : 0.152

Stream size : 1.63 GiB (79%)

Writing library : Lavc56.60.100



Audio

ID : 1

Format : AC-3

Format/Info : Audio Coding 3

Mode extension : CM (complete main)

Format settings, Endianness : Big

Codec ID : 2000

Duration : 1h 33mn

Bit rate mode : Constant

Bit rate : 640 Kbps

Channel(s) : 6 channels

Channel positions : Front: L C R, Side: L R, LFE

Sampling rate : 48.0 KHz

Frame rate : 31.250 fps (1536 spf)

Compression mode : Lossy

Stream size : 430 MiB (20%)

Alignment : Aligned on interleaves

Interleave, duration : 42 ms (1.00 video frame)

Interleave, preload duration : 512 ms






Torrent location

http://kat.cr/terminus-2015-720p-brrip-xvid-ac3-rarbg-t12250970.html

Trackers

Refresh Leechers : Updated September 6, 2017

1. udp://tracker.coppersurfer.tk:6969/announce

2. udp://tracker.openbittorrent.com:80/announce

3. udp://glotorrents.pw:6969/announce

4. udp://tracker.publicbt.com:80/announce

5. http://tracker.trackerfix.com/announce

6. udp://tracker.opentrackr.org:1337/announce

7. udp://9.rarbg.me:2710/announce

8. udp://9.rarbg.to:2710/announce

Comments

You must log in to add a comment.

Embed Code

Sharing Widget

Related torrents

FILENAME SIZE SEEDS PEERS ADDED UPD
[i] Terminus 2015 BRRip 720p x264 AAC-PRiSTiNE [P2PDL]
posted by VYTO in Movies - Sci-fi
611.68 MB 0 0 1 year 2 weeks
[i] Terminus (2015) 720p BRRip 850MB - MkvCage 851.3 MB 0 1 1 year 2 weeks

Top Movies ( auto generated report )

FILENAME SIZE SEEDS PEERS ADDED UPD
[i] Shock Wave (2017) [720p] [YTS AG] 874.7 MB 2284 916 3 days 12 hours
[i] A Ghost Story (2017) [720p] [YTS AG] 679.19 MB 2726 2073 5 days 4 days
[i] Revolt (2017) [720p] [YTS AG] 652.79 MB 2424 1114 3 days 2 days
[i] A Ghost Story (2017) [1080p] [YTS AG] 1.4 GB 2395 913 4 days 3 days
[i] Shock Wave (2017) [1080p] [YTS AG] 1.8 GB 2310 1258 3 days 2 days
[i] The Bad Batch (2016) [720p] [YTS AG] 884.03 MB 2034 964 3 days 2 days
[i] The Book of Henry (2017) [720p] [YTS AG] 775.85 MB 2013 1579 2 days 1 day
[i] Killing.Gunther.2017.1080p.WEB-DL.DD5.1.H264-FGT 3.61 GB 1993 1371 3 days 2 days
[i] Berlin Syndrome (2017) [720p] [YTS AG] 810.27 MB 1949 1438 1 day 17 hours
[i] Goon Last of the Enforcers (2017) [720p] [YTS AG] 740.84 MB 1914 644 2 days 1 day