Suicide Squad 2016 HDTS x264-BiGDADDYVAiN

DOWNLOAD TORRENT

Posted on August 15, 2016 in Movies » Action , verified torrent

Size: 1.67 GB , Seeds: 33 , Peers: 7 ( Updated August 19, 2017 )

* Download via Magnet Link * To download files you need a Bittorrent Client ,

Scrape History ( seeds + peers )

Internal Files

Suicide.Squad.2016.HDTS.x264-BiGDADDYVAiN
SAMPLE 1.mkv   11.84 MB
SAMPLE 2.mkv   18.36 MB
Suicide.Squad.2016.HDTS.x264-BiGDADDYVAiN.mkv   1.64 GB
VAiN.nfo   3.51 KB

Hash Code

40e89a6cd57f4033b9f19fc8d88f661f4752b846

Description

Suicide Squad 2016 HDTS x264-BiGDADDYVAiN



SCREENSHOT



P R E S E N T S . . . .



Suicide.Squad.2016.HDTS.x264-BiGDADDYVAiN



iMDB........: http://www.imdb.com/title/tt1386697/







T E C H N i C A L . i N F O . . .



Basic Information

Format : Matroska

Format version : Version 4 / Version 2

File size : 1.64 GiB

Duration : 1 h 53 min

Overall bit rate mode : Variable

Overall bit rate : 2 069 kb/s

Encoded date : UTC 2016-08-14 19:10:20

Writing application : mkvmerge v8.3.0 ('Over the Horizon') 64bit

Writing library : libebml v1.3.1 + libmatroska v1.4.2



Video

ID : 1

Format : AVC

Format/Info : Advanced Video Codec

Format profile : [email protected]/* */

Format settings, CABAC : Yes

Format settings, ReFrames : 3 frames

Codec ID : V_MPEG4/ISO/AVC

Duration : 1 h 53 min

Bit rate mode : Variable

Bit rate : 1 875 kb/s

Maximum bit rate : 40.0 Mb/s

Width : 704 pixels

Height : 288 pixels

Display aspect ratio : 2.40:1

Frame rate mode : Constant

Frame rate : 25.000 FPS

Color space : YUV

Chroma subsampling : 4:2:0

Bit depth : 8 bits

Scan type : Progressive

Bits/(Pixel*Frame) : 0.370

Stream size : 1.49 GiB (91%)

Writing library : x264 core 148 r2692 64f4e24

Default : Yes

Forced : No

Color range : Full

Color primaries : BT.709

Transfer characteristics : BT.709

Matrix coefficients : BT.709



Audio

ID : 2

Format : MPEG Audio

Format version : Version 1

Format profile : Layer 3

Mode : Joint stereo

Mode extension : MS Stereo

Codec ID : A_MPEG/L3

Codec ID/Hint : MP3

Duration : 1 h 53 min

Bit rate mode : Constant

Bit rate : 192 kb/s

Channel(s) : 2 channels

Sampling rate : 44.1 kHz

Frame rate : 38.281 FPS (1152 spf)

Compression mode : Lossy

Stream size : 156 MiB (9%)









E N C O D E R S . N O T E S . . .







SOURCE......: ViDEO...CPG

............: AUDiO...CPG

SAMPLE......: Yippers

ADDED NOTE..: well took the cpg release as needed sum poo shining... no offense just a different set of eyes. resized, cropped and chopped added the ol' shiner filters :wink: then took the line audio which lacked life and sprayed it too down with the poo filter... now what we have is a diamond made from the turd... :shit:



Screens:



SCREENSHOT SCREENSHOT SCREENSHOT SCREENSHOT SCREENSHOT SCREENSHOT

Trackers

Refresh Leechers : Updated August 19, 2017

1. udp://tracker.coppersurfer.tk:6969/announce

2. udp://tracker.coppersurfer.tk:6969

3. udp://tracker.opentrackr.org:1337/announce

4. udp://tracker.leechers-paradise.org:6969/announce

5. udp://eddie4.nl:6969/announce

6. udp://tracker.leechers-paradise.org:6969

7. udp://zer0day.ch:1337/announce

8. udp://tracker.aletorrenty.pl:2710/announce

9. udp://p4p.arenabg.ch:1337/announce

10. udp://9.rarbg.me:2710/announce

11. udp://tracker.sktorrent.net:6969/announce

12. udp://explodie.org:6969/announce

13. udp://tracker.trackerfix.com:80/announce

14. udp://9.rarbg.to:2710/announce

15. udp://tracker.piratepublic.com:1337/announce

Comments

You must log in to add a comment.

Embed Code

Sharing Widget

Related torrents

FILENAME SIZE SEEDS PEERS ADDED UPD
[i] Suicide Squad 2016 HDTS AC3 2 0 x264-BDP 2.09 GB 243 91 1 year 11 months
[i] Suicide Squad 2016 480p - HDTS - x264 - AAC - Zi$t-WWRG 714.3 MB 54 20 1 year 11 months
[i] Suicide Squad (2016) HDTS - 700MB - ShAaNiG 700.3 MB 42 5 1 year 1 day
[i] Suicide Squad (2016) HDTS 850MB - MkvCage 853.3 MB 21 4 1 year 1 day
[i] Suicide Squad 2016 HDTS x264-BiGDADDYVAiN 1.67 GB 12 5 1 year 12 hours
[i] Suicide.Squad.2016.HDTS.x264.800MB.Makintos13 803.65 MB 7 3 1 year 1 hour
[i] Suicide.Squad.2016.HDTS.x264-BiGDADDYVAiN[PRiME] 1.68 GB 5 3 1 year 12 hours
[i] Suicide.Squad.2016.HDTS.x264-BiGDADDYVAiN.. 1.67 GB 3 3 1 year 12 hours
[i] Suicide.Squad.2016.HDTS.550MB.Ganool 551.3 MB 2 3 1 year 14 hours

Top Movies ( auto generated report )

FILENAME SIZE SEEDS PEERS ADDED UPD
[i] Baywatch (2017) [720p] [YTS AG] 896.85 MB 12551 10988 19 hours 2 hours
[i] Baywatch (2017) [1080p] [YTS AG] 1.85 GB 8619 11384 19 hours 17 hours
[i] Security (2017) [720p] [YTS AG] 680.08 MB 5527 2295 2 days 1 day
[i] Security (2017) [1080p] [YTS AG] 1.4 GB 4273 1851 2 days 1 day
[i] Kill Switch (2017) [720p] [YTS AG] 677.18 MB 2270 801 4 days 1 day
[i] Baywatch.2017.720p.WEB-DL.H264.AC3-EVO[EtHD] 3.59 GB 2236 653 3 days 2 days
[i] Baywatch.2017.WEB-DL.XviD.MP3-FGT [rarbg] 1.47 GB 2176 806 4 days 3 days
[i] Oceans Rising (2017) [720p] [YTS AG] 642.27 MB 2095 840 2 days 1 day
[i] The Recall (2017) [720p] [YTS AG] 672.5 MB 1749 2127 19 hours 17 hours
[i] The Recall (2017) [1080p] [YTS AG] 1.39 GB 1729 1705 19 hours 17 hours