Suicide Squad 2016 480p - HDTS - x264 - AAC - Zi$t-WWRG

DOWNLOAD TORRENT

Posted on August 16, 2016 in Movies » Action , verified torrent

Size: 714.3 MB , Seeds: 3 , Peers: 0 ( Updated August 20, 2017 )

* Download via Magnet Link * To download files you need a Bittorrent Client ,

Scrape History ( seeds + peers )

Internal Files

Suicide Squad 2016 480p - HDTS - x264 - AAC - Zi$t-WWRG
Sample.mp4   9.43 MB
Suicide Squad 2016 480p - HDTS - x264 - AAC - Zi$t-WWRG.mp4   703.81 MB

Hash Code

4d393c7a68af541c35152b858e5bd51fe6626f81

Description

Note:i Just varnished the Video

SOURCE:Thanks to CPG



SCREENSHOT

SCREENSHOT

SCREENSHOT

SCREENSHOT

SCREENSHOT

SCREENSHOT

SCREENSHOT

SCREENSHOT

SCREENSHOT

SCREENSHOT

SCREENSHOT



General

Complete name : Suicide Squad 2016

Format : MPEG-4

Format profile : Base Media / Version 2

Codec ID : mp42

File size : 704 MiB

Duration : 1h 53mn

Overall bit rate mode : Variable

Overall bit rate : 867 Kbps





Video

ID : 1

Format : AVC

Format/Info : Advanced Video Codec

Format profile : [email protected]/* */

Format settings, CABAC : Yes

Format settings, ReFrames : 4 frames

Codec ID : avc1

Codec ID/Info : Advanced Video Coding

Duration : 1h 53mn

Bit rate : 667 Kbps

Width : 900 pixels

Height : 400 pixels

Display aspect ratio : 2.25:1

Frame rate mode : Constant

Frame rate : 25.000 fps

Color space : YUV

Chroma subsampling : 4:2:0

Bit depth : 8 bits

Scan type : Progressive

Bits/(Pixel*Frame) : 0.074

Stream size : 542 MiB (77%)

Writing library : x264 core 142 r2479 dd79a61



Audio

ID : 2

Format : AAC

Format/Info : Advanced Audio Codec

Format profile : LC

Codec ID : 40

Duration : 1h 53mn

Bit rate mode : Variable

Bit rate : 192 Kbps

Channel(s) : 2 channels

Channel positions : Front: L R

Sampling rate : 48.0 KHz

Compression mode : Lossy

Stream size : 156 MiB (22%)

Title : Stereo / Stereo

Language : English

Trackers

Refresh Leechers : Updated August 20, 2017

1. udp://torrent.gresille.org:80/announce

2. udp://torrent.gresille.org:80/announce

3. http://retracker.krs-ix.ru/announce

4. http://retracker.krs-ix.ru/announce.php

5. http://pow7.com:80/announce

6. http://tracker.tfile.me/announce

7. http://www.wareztorrent.com/announce

8. udp://tracker.leechers-paradise.org:6969/announce

9. udp://tracker.aletorrenty.pl:2710/announce

10. udp://tracker.eddie4.nl:6969/announce

11. udp://tracker.opentrackr.org:1337/announce

Comments

You must log in to add a comment.

Embed Code

Sharing Widget

Related torrents

FILENAME SIZE SEEDS PEERS ADDED UPD
[i] suicide.squad.2016.extended.480p.web.dl.x264.rmteam 889.3 MB 4 4 9 months 3 months
[i] Suicide.Squad.2016.WEBRip.480p.x264.AAC-VYTO [P2PDL]
posted by VYTO in Movies - Action
482.95 MB 3 3 9 months 3 months

Top Movies ( auto generated report )

FILENAME SIZE SEEDS PEERS ADDED UPD
[i] Baywatch (2017) [720p] [YTS AG] 896.85 MB 14189 10566 2 days 45 min
[i] Baywatch (2017) [1080p] [YTS AG] 1.85 GB 11328 9572 2 days 1 day
[i] Security (2017) [720p] [YTS AG] 680.08 MB 5527 2295 3 days 2 days
[i] Security (2017) [1080p] [YTS AG] 1.4 GB 4273 1851 3 days 2 days
[i] Inconceivable (2017) [720p] [YTS AG] 777.71 MB 3109 1605 1 day 10 hours
[i] What.Happened.to.Monday.2017.WEBRip.x264-FGT[rarbg] 1.06 GB 2846 1500 2 days 1 day
[i] The Recall (2017) [720p] [YTS AG] 672.5 MB 2707 1910 2 days 1 day
[i] The Recall (2017) [1080p] [YTS AG] 1.39 GB 2469 1416 2 days 1 day
[i] Inconceivable (2017) [1080p] [YTS AG] 1.61 GB 2453 1236 1 day 10 hours
[i] Kill Switch (2017) [720p] [YTS AG] 677.18 MB 1824 546 5 days 24 min