Painted Skin The Resurrection 2012 HDTV x264 AC3-SSN

DOWNLOAD TORRENT

Posted on September 14, 2012 in Movies » Fantasy , verified torrent

Size: 1.15 GB , Seeds: 2 , Peers: 0 ( Updated May 30, 2017 - Refresh )

* Download via Magnet Link * To download files you need a Bittorrent Client ,

Scrape History ( seeds + peers )

Internal Files

Painted Skin The Resurrection 2012 HDTV x264 AC3-SSN
Painted Skin The Resurrection 2012 HDTV x264 AC3-SSN.mkv   1.14 GB
Painted Skin The Resurrection 2012 HDTV x264 AC3-SSN.srt   53.37 KB
Painted Skin The Resurrection 2012 HDTV x264 AC3-SSN.nfo   3.58 KB

Hash Code

e6b43185fb5a7f1bacf6f18571b56ec8d114623d

Description



IMDB: http://www.imdb.com/title/tt2371411/

Language: Mandarin
Subtitles: English hardcoded +



General
Complete name : Painted Skin The Resurrection 2012 HDTV x264 AC3-SSN.mkv
Format : Matroska
Format version : Version 2
File size : 1.14 GiB
Duration : 2h 11mn
Overall bit rate : 1 246 Kbps
Encoded date : UTC 2012-09-10 15:12:21
Writing application : mkvmerge v5.8.0 ('No Sleep / Pillow') built on Sep 2 2012 15:37:04
Writing library : libebml v1.2.3 + libmatroska v1.3.0

Video
ID : 1
Format : AVC
Format/Info : Advanced Video Codec
Format profile : [email protected]
Format settings, CABAC : Yes
Format settings, ReFrames : 5 frames
Codec ID : V_MPEG4/ISO/AVC
Duration : 2h 11mn
Bit rate : 1 054 Kbps
Width : 854 pixels
Height : 364 pixels
Display aspect ratio : 2.35:1
Original display aspect ratio : 2.35:1
Frame rate mode : Constant
Frame rate : 24.000 fps
Color space : YUV
Chroma subsampling : 4:2:0
Bit depth : 8 bits
Scan type : Progressive
Bits/(Pixel*Frame) : 0.169
Stream size : 967 MiB (83%)
Writing library : x264 core 125 r2208 d9d2288
Language : English
Default : Yes
Forced : No

Audio
ID : 2
Format : AC-3
Format/Info : Audio Coding 3
Mode extension : CM (complete main)
Format settings, Endianness : Big
Codec ID : A_AC3
Duration : 2h 11mn
Bit rate mode : Constant
Bit rate : 192 Kbps
Channel(s) : 2 channels
Channel positions : Front: L R
Sampling rate : 48.0 KHz
Bit depth : 16 bits
Compression mode : Lossy
Stream size : 180 MiB (15%)
Default : Yes
Forced : No



http://3.firepic.org/3/images/2012-09/10/ltlhl6clm6z3.png

http://3.firepic.org/3/images/2012-09/10/hbk2snhxajoz.png

http://3.firepic.org/3/images/2012-09/10/0zfx41cuh4o8.png

Torrent location

http://thepiratebay.se/torrent/7634607/Painted_Skin_The_Resurrection_2012_HDTV_x264_AC3-SSN

Trackers

Refresh Leechers : Updated May 30, 2017

1. http://tracker.thepiratebay.org/announce

2. udp://tracker.openbittorrent.com:80

3. udp://tracker.ccc.de:80

4. udp://tracker.publicbt.com:80

5. udp://tracker.1337x.org:80/announce

6. http://www.h33t.com:3310/announce

7. http://tracker.torrentbay.to:6969/announce

Comments

You must log in to add a comment.

Embed Code

Sharing Widget

Related torrents

FILENAME SIZE SEEDS PEERS ADDED UPD
[i]
[i]
Painted Skin 2 The Resurrection 2012 720p brrip x264 ac3 jyk
posted by imarion in Movies - Fantasy , Quality: Audio 9/10 - Video 9/10
2.89 GB 4 1 5 years 3 months
[i] Painted Skin. The Resurrection (2012) DVDrip (xvid) NL Subs. DMT 1.56 GB 0 0 4 years 3 months
[i] Painted.Skin.II.The.Resurrection.2012.BluRay.720p.DTS.x264-beAst 6.15 GB 0 0 5 years 3 months
[i] Painted.Skin.2.The.Resurrection.2012.DVDSCR.XviD.AC3-JYK 1022.32 MB 0 0 5 years 3 months
[i] Painted Skin 2 The Resurrection 2012 DVDSCR XviD AC3-JYK 1023.3 MB 0 0 5 years 3 months
[i] Painted.Skin.The.Resurrection.2012.BD-RMVB Eng Sub 578.57 MB 0 0 5 years 3 months
[i] Painted Skin The Resurrection 2012 1080p BluRay 3D H-SBS DTS x26 12.96 GB 0 2 5 years 3 months
[i]
[i]
Painted.Skin.The.Resurrection.2012.720p.BluRay.x264.DTS-HDChina
Movies - Fantasy , Quality: Audio 9/10 - Video 9/10
6.51 GB 0 0 5 years 3 months
[i] Painted.Skin.II.The.Resurrection.2012.BluRay.1080p.DTS.x264-CHD [PublicHD] 12.01 GB 0 1 5 years 3 months
[i] Painted.Skin.The.Resurrection.2012.DVDRip.XviD-CoWRY 1.38 GB 0 1 5 years 3 months

Top Movies ( auto generated report )

FILENAME SIZE SEEDS PEERS ADDED UPD
[i] Despicable Me 3 (2017) [1080p] [YTS AG] 1.36 GB 8482 3984 4 days 1 day
[i] Despicable Me 3 (2017) [720p] [YTS AG] 658.36 MB 7211 2899 4 days 12 hours
[i] Shock Wave (2017) [720p] [YTS AG] 874.7 MB 3224 1942 1 day 15 hours
[i] A Ghost Story (2017) [720p] [YTS AG] 679.19 MB 2726 2073 3 days 2 days
[i] Revolt (2017) [720p] [YTS AG] 652.79 MB 2424 1114 1 day 15 hours
[i] A Ghost Story (2017) [1080p] [YTS AG] 1.4 GB 2395 913 2 days 1 day
[i] Shock Wave (2017) [1080p] [YTS AG] 1.8 GB 2310 1258 1 day 15 hours
[i] The Bad Batch (2016) [720p] [YTS AG] 884.03 MB 2034 964 1 day 15 hours
[i] Killing.Gunther.2017.1080p.WEB-DL.DD5.1.H264-FGT 3.61 GB 1993 1371 1 day 14 hours
[i] Revolt (2017) [1080p] [YTS AG] 1.34 GB 1910 836 1 day 15 hours