Money Monster 2016 HQCAM x264-COX

DOWNLOAD TORRENT

Posted on May 31, 2016 in Movies » Drama , verified torrent

Size: 751.82 MB , Seeds: 30 , Peers: 6 ( Updated September 19, 2017 - Refresh )

Quality: Audio 7/10 - Video 7/10 ( defined by users )

* Download via Magnet Link * To download files you need a Bittorrent Client ,

Scrape History ( seeds + peers )

Internal Files

Money.Monster.2016.HQCAM.x264-COX
INFO.nfo   2.3 KB
Money.Monster.2016.HQCAM.x264-COX.mp4   751.7 MB
Torrent Downloaded From peertorrent.com.txt   338 Byte

Hash Code

4868a6fa5d1f7f9b06f095aed47e2818308b361d

Description

SCREENSHOT





http://www.imdb.com/title/tt2241351/





Financial TV host Lee Gates and his producer Patty are put in an extreme situation when an irate investor takes over their studio.



Director: Jodie Foster

Writers: Jamie Linden (screenplay), Alan DiFiore (screenplay)

Stars: George Clooney, Julia Roberts, Jack O'Connell

Genres: Crime | Drama | Thriller

Country: USA

Language: English





Format : MPEG-4

Format profile : Base Media

Codec ID : isom (isom/avc1)

File size : 752 MiB

Duration : 1h 33mn

Overall bit rate : 1 121 Kbps

Encoded date : UTC 2016-05-30 12:09:35

Tagged date : UTC 2016-05-30 12:09:35



Video

ID : 1

Format : AVC

Format/Info : Advanced Video Codec

Format profile : [email protected]

Format settings, CABAC : Yes

Format settings, ReFrames : 3 frames

Codec ID : avc1

Codec ID/Info : Advanced Video Coding

Duration : 1h 33mn

Bit rate : 1 000 Kbps

Maximum bit rate : 3 736 Kbps

Width : 720 pixels

Height : 352 pixels

Display aspect ratio : 2.045

Frame rate mode : Constant

Frame rate : 29.970 (30000/1001) fps

Original frame rate : 29.970 (29970/1000) fps

Color space : YUV

Chroma subsampling : 4:2:0

Bit depth : 8 bits

Scan type : Progressive

Bits/(Pixel*Frame) : 0.132

Stream size : 664 MiB (88%)

Tagged date : UTC 2016-05-30 12:09:50



Audio

ID : 2

Format : MPEG Audio

Format version : Version 1

Format profile : Layer 3

Codec ID : 6B

Duration : 1h 33mn

Bit rate mode : Constant

Bit rate : 128 Kbps

Maximum bit rate : 132 Kbps

Channel(s) : 2 channels

Sampling rate : 48.0 KHz

Compression mode : Lossy

Stream size : 85.8 MiB (11%)

Writing library : LAME3.97

Encoding settings : -m s -V 4 -q 2 -lowpass 17 -b 128

Encoded date : UTC 2016-05-30 12:09:49

Tagged date : UTC 2016-05-30 12:09:50





SCREENSHOT SCREENSHOT SCREENSHOT SCREENSHOT

Torrent location

https://kat.cr/money-monster-2016-hqcam-x264-cox-t12693046.html

Trackers

Refresh Leechers : Updated September 19, 2017

1. udp://tracker.opentrackr.org:1337/announce

2. udp://tracker.coppersurfer.tk:6969/announce

3. udp://tracker.openbittorrent.com:80/announce

4. udp://glotorrents.pw:6969/announce

5. http://open.acgtracker.com:1096/announce

6. http://tracker.dler.org:6969/announce

7. http://tracker.mg64.net:6881/announce

8. http://tracker.aletorrenty.pl:2710/announce

9. http://explodie.org:6969/announce

Comments

You must log in to add a comment.

tindaro •177 2016-06-01 10:40:54

AUDIO: 7 - VIDEO: 7

very good job for a Cam

Embed Code

Sharing Widget

Related torrents

FILENAME SIZE SEEDS PEERS ADDED UPD
[i] Money Monster 2016 HQCAM x264-COX 751.82 MB 12 4 1 year 5 days
[i] Money Monster 2016 HQCAM XviD - roflcopter2110
posted by roflcopter2110 in Movies - Drama
1.52 GB 3 3 1 year 5 days
[i] Money Monster 2016 HQCAM X264-COX[VR56] 751.82 MB 2 4 1 year 6 days
[i] Money Monster (2016) HQCAM 350MB Ganool 351.15 MB 2 3 1 year 6 days
[i] Money Monster 2016 HQCAM x264-COX 751.82 MB 1 4 1 year 5 days

Top Movies ( auto generated report )

FILENAME SIZE SEEDS PEERS ADDED UPD
[i] Despicable Me 3 (2017) [1080p] [YTS AG] 1.36 GB 8482 3984 5 days 2 days
[i] Despicable Me 3 (2017) [720p] [YTS AG] 658.36 MB 7029 2538 5 days 20 hours
[i] Shock Wave (2017) [720p] [YTS AG] 874.7 MB 3224 1942 2 days 1 day
[i] A Ghost Story (2017) [720p] [YTS AG] 679.19 MB 2726 2073 4 days 3 days
[i] Revolt (2017) [720p] [YTS AG] 652.79 MB 2424 1114 2 days 1 day
[i] A Ghost Story (2017) [1080p] [YTS AG] 1.4 GB 2395 913 3 days 2 days
[i] Shock Wave (2017) [1080p] [YTS AG] 1.8 GB 2310 1258 2 days 1 day
[i] The Bad Batch (2016) [720p] [YTS AG] 884.03 MB 2034 964 2 days 1 day
[i] Killing.Gunther.2017.1080p.WEB-DL.DD5.1.H264-FGT 3.61 GB 1993 1371 2 days 1 day
[i] Goon Last of the Enforcers (2017) [720p] [YTS AG] 740.84 MB 1914 644 1 day 22 hours