Knucklebones.2016.BDRip.x264-RUSTED[PRiME]

DOWNLOAD TORRENT

Posted on May 19, 2017 in Movies » Misc , verified torrent

Size: 562.65 MB , Seeds: 0 , Peers: 2 ( Updated July 22, 2017 - Refresh )

* Download via Magnet Link * To download files you need a Bittorrent Client ,

Scrape History ( seeds + peers )

Internal Files

Knucklebones.2016.BDRip.x264-RUSTED[PRiME]
Please Support!! Read More!!!.txt   334 Byte
knucklebones.2016.bdrip.x264-rusted[PRiME].mkv   562.45 MB

Hash Code

f58d6dc261c640ffb143c8833d2c458bc9d71b04

Description


Knucklebones.2016.BDRip.x264-RUSTED[PRiME]

ImDb: http://www.imdb.com/title/tt3204254

SCREENSHOT

Complete name : knucklebones.2016.bdrip.x264-rusted[PRiME].mkv
Format : Matroska
Format version : Version 4 / Version 2
File size : 562 MiB
Duration : 1 h 24 min
Overall bit rate : 930 kb/s
Encoded date : UTC 2017-05-19 04:37:50
Writing application : mkvmerge v8.3.0 ('Over the Horizon') 64bit
Writing library : libebml v1.3.1 + libmatroska v1.4.2

Video
ID : 1
Format : AVC
Format/Info : Advanced Video Codec
Format profile : [email protected]/* */
Format settings, CABAC : Yes
Format settings, ReFrames : 5 frames
Codec ID : V_MPEG4/ISO/AVC
Duration : 1 h 24 min
Bit rate : 801 kb/s
Width : 720 pixels
Height : 404 pixels
Display aspect ratio : 16:9
Frame rate mode : Constant
Frame rate : 23.976 (24000/1001) FPS
Color space : YUV
Chroma subsampling : 4:2:0
Bit depth : 8 bits
Scan type : Progressive
Bits/(Pixel*Frame) : 0.115
Stream size : 485 MiB (86%)
Writing library : x264 core 148 r2762 90a61ec
Encoding settings : cabac=1 / ref=5 / deblock=1:-2:-2 / analyse=0x3:0x133 / me=hex / subme=8 / psy=1 / psy_rd=0.90:1.00 / mixed_ref=1 / me_range=16 / chroma_me=1 / trellis=2 / 8x8dct=1 / cqm=0 / deadzone=21,11 / fast_pskip=1 / chroma_qp_offset=-4 / threads=16 / lookahead_threads=2 / sliced_threads=0 / nr=0 / decimate=1 / interlaced=0 / bluray_compat=0 / constrained_intra=0 / bframes=3 / b_pyramid=2 / b_adapt=1 / b_bias=0 / direct=3 / weightb=1 / open_gop=0 / weightp=2 / keyint=250 / keyint_min=23 / scenecut=40 / intra_refresh=0 / rc_lookahead=50 / rc=crf / mbtree=1 / crf=19.0 / qcomp=0.60 / qpmin=0 / qpmax=69 / qpstep=4 / ip_ratio=1.40 / aq=1:1.00
Default : Yes
Forced : No
Color range : Limited
Matrix coefficients : BT.709

Audio
ID : 2
Format : AAC
Format/Info : Advanced Audio Codec
Format profile : LC
Codec ID : A_AAC
Duration : 1 h 24 min
Bit rate : 126 kb/s
Channel(s) : 2 channels
Channel positions : Front: L R
Sampling rate : 48.0 kHz
Frame rate : 46.875 FPS (1024 spf)
Compression mode : Lossy
Delay relative to video : 9 ms
Stream size : 76.5 MiB (14%)
Language : English
Default : Yes
Forced : No

Menu
00:00:00.000 : en:00:00:00.000
00:07:51.805 : en:00:07:51.805
00:14:19.776 : en:00:14:19.776
00:20:39.447 : en:00:20:39.447
00:29:20.425 : en:00:29:20.425
00:35:57.155 : en:00:35:57.155
00:41:51.509 : en:00:41:51.509
00:50:45.334 : en:00:50:45.334
00:56:47.195 : en:00:56:47.195
01:05:58.371 : en:01:05:58.371
01:10:05.034 : en:01:10:05.034
01:17:50.499 : en:01:17:50.499

SCREENSHOT

Click Image To View Full Size

SCREENSHOT
Click To View Screenshot
Click To View Screenshot
Click To View Screenshot

Torrent location

https://www.1337x.to/torrent/2218480/Knucklebones-2016-BDRip-x264-RUSTED-PRiME/

Trackers

Refresh Leechers : Updated July 22, 2017

1. http://explodie.org:6969/announce

2. http://tracker.tfile.me/announce

3. http://bigfoot1942.sektori.org:6969/announce

4. http://tracker2.wasabii.com.tw:6969/announce

5. http://tracker.mg64.net:6881/announce

6. http://bt.artvid.ru:6969/announce

7. http://tracker1.wasabii.com.tw:6969/announce

8. http://open.acgtracker.com:1096/announce

9. http://tracker.opentrackr.org/announce

10. http://mvgroup.org:2710/announce

11. udp://mgtracker.org:6969/announce

12. udp://asnet.pw:2710/announce

13. udp://tracker.mgtracker.org:2710/announce

14. udp://tracker4.piratux.com:6969/announce

15. udp://tracker.trackerfix.com:80/announce

16. udp://tracker.pomf.se:80/announce

17. udp://torrent.gresille.org:80/announce

18. udp://p4p.arenabg.com:1337

19. udp://ipv4.tracker.harry.lu:80/announce

20. udp://inferno.demonoid.ooo:3389/announce

21. udp://tracker.blackunicorn.xyz:6969/announce

22. udp://tracker.internetwarriors.net:1337/announce

23. udp://tracker.openbittorrent.com:80/announce

24. udp://eddie4.nl:6969/announce

25. udp://tracker.leechers-paradise.org:6969/announce

26. udp://tracker.opentrackr.org:1337/announce

27. udp://tracker.zer0day.to:1337/announce

28. udp://p4p.arenabg.ch:1337/announce

29. udp://tracker.coppersurfer.tk:6969/announce

30. udp://9.rarbg.to:2710/announce

31. udp://9.rarbg.com:2710/announce

32. udp://9.rarbg.me:2710/announce

33. udp://open.demonii.com:1337

34. udp://glotorrents.pw:6969/announce

35. udp://eddie4.nl:6969/announce

36. udp://explodie.org:6969/announce

37. udp://9.rarbg.me:2710/announce

38. udp://9.rarbg.to:2710/announce

39. udp://9.rarbg.com:2710/announce

40. udp://p4p.arenabg.com:1337/announce

41. udp://p4p.arenabg.ch:1337/announce

42. udp://ipv4.tracker.harry.lu:80/announce

43. udp://tracker.zer0day.to:1337/announce

44. udp://tracker.opentrackr.org:1337/announce

45. udp://tracker.leechers-paradise.org:6969/announce

46. udp://tracker.coppersurfer.tk:6969/announce

47. udp://tracker.ilibr.org:80/announce

48. udp://tracker.ilibr.org:6969/announce

Comments

You must log in to add a comment.

Embed Code

Sharing Widget

Top Movies ( auto generated report )

FILENAME SIZE SEEDS PEERS ADDED UPD
[i] Security (2017) [720p] [YTS AG] 680.08 MB 5527 2295 1 day 7 hours
[i] Security (2017) [1080p] [YTS AG] 1.4 GB 4273 1851 1 day 7 hours
[i] Kill Switch (2017) [720p] [YTS AG] 677.18 MB 2270 801 3 days 19 hours
[i] Baywatch.2017.720p.WEB-DL.H264.AC3-EVO[EtHD] 3.59 GB 2236 653 3 days 2 days
[i] Baywatch.2017.WEB-DL.XviD.MP3-FGT [rarbg] 1.47 GB 2176 806 3 days 2 days
[i] Oceans Rising (2017) [720p] [YTS AG] 642.27 MB 2095 840 1 day 7 hours
[i] Goon.Last.of.the.Enforcers.2017.WEB-DL.x264-FGT[rarbg] 887.65 MB 1722 953 3 days 2 days
[i] Baywatch.2017.WEB-DL.x264-FGT [rarbg] 1016.65 MB 1654 782 3 days 2 days
[i] The Dark Tower (2017) 720p TS 700MB - MkvCage 701.3 MB 1470 532 1 day 12 hours
[i] Oceans Rising (2017) [1080p] [YTS AG] 1.32 GB 1594 778 1 day 7 hours