Jason Bourne 2016 HDCAM - [CLEANED-AUDIO] - x264 - Zi$t-CTRC

DOWNLOAD TORRENT

Posted on July 31, 2016 in Movies » Action , verified torrent

Size: 714.3 MB , Seeds: 4 , Peers: 3 ( Updated August 4, 2017 - Refresh )

* Download via Magnet Link * To download files you need a Bittorrent Client ,

Scrape History ( seeds + peers )

Internal Files

Jason Bourne 2016 HDCAM - [CLEANED-AUDIO] - x264 - Zi$t-CTRC
CTRC info.txt   433 Byte
Sample.mp4   4.89 MB
Jason Bourne 2016 HDCAM - [CLEANED-AUDIO] - x264 - Zi$t-CTRC.mp4   708.97 MB

Hash Code

e3001b1c32876dbd79e2acfe3d96bba8309f1ce1

Description

Note:Sample Included



SCREENSHOT

SCREENSHOT

SCREENSHOT

SCREENSHOT

SCREENSHOT

SCREENSHOT

SCREENSHOT

SCREENSHOT



General

Complete name : Jason Bourne 2016

Format : MPEG-4

Format profile : Base Media / Version 2

Codec ID : mp42

File size : 709 MiB

Duration : 1h 53mn

Overall bit rate mode : Variable

Overall bit rate : 874 Kbps

Movie name : Jason Bourne 2016 HDCAM - [CLEANED-AUDIO] - x264 - Zi$t-CTRC



Video

ID : 1

Format : AVC

Format/Info : Advanced Video Codec

Format profile : [email protected]/* */

Format settings, CABAC : Yes

Format settings, ReFrames : 4 frames

Codec ID : avc1

Codec ID/Info : Advanced Video Coding

Duration : 1h 53mn

Bit rate : 708 Kbps

Width : 720 pixels

Height : 306 pixels

Display aspect ratio : 2.35:1

Frame rate mode : Constant

Frame rate : 25.000 fps

Color space : YUV

Chroma subsampling : 4:2:0

Bit depth : 8 bits

Scan type : Progressive

Bits/(Pixel*Frame) : 0.129

Stream size : 575 MiB (81%)



Audio

ID : 2

Format : AAC

Format/Info : Advanced Audio Codec

Format profile : LC

Codec ID : 40

Duration : 1h 53mn

Bit rate mode : Variable

Bit rate : 160 Kbps

Channel(s) : 2 channels

Channel positions : Front: L R

Sampling rate : 48.0 KHz

Compression mode : Lossy

Stream size : 130 MiB (18%)

Language : English

Trackers

Refresh Leechers : Updated August 4, 2017

1. udp://torrent.gresille.org:80/announce

2. udp://torrent.gresille.org:80/announce

3. http://retracker.krs-ix.ru/announce

4. http://retracker.krs-ix.ru/announce.php

5. http://pow7.com:80/announce

6. http://tracker.tfile.me/announce

7. http://www.wareztorrent.com/announce

8. udp://tracker.leechers-paradise.org:6969/announce

9. udp://tracker.aletorrenty.pl:2710/announce

10. udp://tracker.eddie4.nl:6969/announce

11. udp://tracker.opentrackr.org:1337/announce

Comments

You must log in to add a comment.

Embed Code

Sharing Widget

Top Movies ( auto generated report )

FILENAME SIZE SEEDS PEERS ADDED UPD
[i] Security (2017) [720p] [YTS AG] 680.08 MB 5527 2295 1 day 9 hours
[i] Security (2017) [1080p] [YTS AG] 1.4 GB 4273 1851 1 day 9 hours
[i] Kill Switch (2017) [720p] [YTS AG] 677.18 MB 2270 801 3 days 21 hours
[i] Baywatch.2017.720p.WEB-DL.H264.AC3-EVO[EtHD] 3.59 GB 2236 653 3 days 2 days
[i] Baywatch.2017.WEB-DL.XviD.MP3-FGT [rarbg] 1.47 GB 2176 806 3 days 2 days
[i] Oceans Rising (2017) [720p] [YTS AG] 642.27 MB 2095 840 1 day 9 hours
[i] Goon.Last.of.the.Enforcers.2017.WEB-DL.x264-FGT[rarbg] 887.65 MB 1722 953 3 days 2 days
[i] Baywatch.2017.WEB-DL.x264-FGT [rarbg] 1016.65 MB 1654 782 3 days 2 days
[i] The Dark Tower (2017) 720p TS 700MB - MkvCage 701.3 MB 1470 532 1 day 14 hours
[i] Oceans Rising (2017) [1080p] [YTS AG] 1.32 GB 1594 778 1 day 9 hours