Jason Bourne 2016 CAM READNFO XviD-BiGDADDYVAiN

DOWNLOAD TORRENT

Posted on August 2, 2016 in Movies » Action , verified torrent

Size: 1.39 GB , Seeds: 2 , Peers: 5 ( Updated August 6, 2017 - Refresh )

* Download via Magnet Link * To download files you need a Bittorrent Client ,

Scrape History ( seeds + peers )

Internal Files

Jason.Bourne.2016.CAM.READNFO.XviD-BiGDADDYVAiN
Jason.Bourne.2016.CAM.READNFO.XviD-BiGDADDYVAiN.avi   1.37 GB
VAiN.nfo   3.33 KB
sample.avi   15.88 MB

Hash Code

119803b63ce2938b4ebe500e273586381a295813

Description

Jason Bourne 2016 CAM READNFO XviD-BiGDADDYVAiN



SCREENSHOT



P R E S E N T S . . . .



Jason.Bourne.2016.CAM.READNFO.XviD-BiGDADDYVAiN



iMDB........: http://www.imdb.com/title/tt4196776/





Code:
T E C H N i C A L . i N F O . . .

Basic Information
Format : AVI
Format/Info : Audio Video Interleave
File size : 1.37 GiB
Duration : 1 h 53 min
Overall bit rate : 1 731 kb/s
Writing application : VirtualDubMod 1.5.10.2 (build 2540/release)
Writing library : VirtualDubMod build 2540/release

Video
ID : 0
Format : MPEG-4 Visual
Format profile : Advanced [email protected]/* */
Format settings, BVOP : 2
Format settings, QPel : No
Format settings, GMC : No warppoints
Format settings, Matrix : Default (MPEG)
Muxing mode : Packed bitstream
Codec ID : XVID
Codec ID/Hint : XviD
Duration : 1 h 53 min
Bit rate : 1 594 kb/s
Width : 634 pixels
Height : 240 pixels
Display aspect ratio : 2.642
Frame rate : 25.000 FPS
Color space : YUV
Chroma subsampling : 4:2:0
Bit depth : 8 bits
Scan type : Progressive
Compression mode : Lossy
Bits/(Pixel*Frame) : 0.419
Stream size : 1.26 GiB (92%)
Writing library : XviD 67

Audio
ID : 1
Format : AC-3
Format/Info : Audio Coding 3
Mode extension : CM (complete main)
Format settings, Endianness : Big
Codec ID : 2000
Duration : 1 h 53 min
Bit rate mode : Constant
Bit rate : 128 kb/s
Channel(s) : 2 channels
Channel positions : Front: L R
Sampling rate : 32.0 kHz
Frame rate : 20.833 FPS (1536 spf)
Compression mode : Lossy
Stream size : 104 MiB (7%)
Alignment : Split accross interleaves
Interleave, duration : 40 ms (1.00 video frame)
Interleave, preload duratio : 500 ms







Screens:





SCREENSHOT SCREENSHOT SCREENSHOT SCREENSHOT

Trackers

Refresh Leechers : Updated August 6, 2017

1. udp://tracker.coppersurfer.tk:6969/announce

2. udp://tracker.coppersurfer.tk:6969

3. udp://tracker.opentrackr.org:1337/announce

4. udp://tracker.leechers-paradise.org:6969/announce

5. udp://eddie4.nl:6969/announce

6. udp://tracker.leechers-paradise.org:6969

7. udp://zer0day.ch:1337/announce

8. udp://tracker.aletorrenty.pl:2710/announce

9. udp://p4p.arenabg.ch:1337/announce

10. udp://9.rarbg.me:2710/announce

11. udp://tracker.sktorrent.net:6969/announce

12. udp://explodie.org:6969/announce

13. udp://tracker.trackerfix.com:80/announce

14. udp://9.rarbg.to:2710/announce

15. udp://tracker.piratepublic.com:1337/announce

Comments

You must log in to add a comment.

Embed Code

Sharing Widget

Related torrents

FILENAME SIZE SEEDS PEERS ADDED UPD
[i] Jason Bourne 2016 1080p WEB-DL x264 AC3-JYK 3.39 GB 410 375 9 months 4 months
[i] Jason Bourne (2016) HC - 1080p HDRiP - 2.2GB - ShAaNiG 2.2 GB 307 12 11 months 8 months
[i] Jason.Bourne.2016.HDRip.XViD.AC3-ETRG 1.4 GB 257 48 9 months 4 months
[i] Jason Bourne (2016) 720p HDTC 850MB - MkvCage 904.3 MB 244 30 12 months 9 months
[i]
[i]
Jason Bourne 2016 HD-TS x264-CPG
1.85 GB 176 26 1 year 2 weeks
[i] Jason Bourne 2016 1080p BluRay x264 DTS-JYK 3.11 GB 135 38 9 months 3 months
[i] Jason Bourne (2016).H264.Italian.English.Ac3.5.1.sub.Ita.Eng.iCV-MIRCrew
posted by robbyrs in Movies - Action
1.87 GB 118 12 9 months 3 months
[i] Jason Bourne (2016) 720p HDTS - 1GB - ShAaNiG 1.04 GB 76 13 12 months 9 months
[i] Jason.Bourne.2016.720p.BRRip.x264.AAC-ETRG 922.3 MB 70 8 9 months 3 months
[i] Jason.Bourne.2016.BRRip.XviD-ETRG 706.82 MB 64 12 9 months 3 months

Top Movies ( auto generated report )

FILENAME SIZE SEEDS PEERS ADDED UPD
[i] Baywatch (2017) [720p] [YTS AG] 896.85 MB 12160 7311 4 days 1 day
[i] Baywatch (2017) [1080p] [YTS AG] 1.85 GB 8550 3546 4 days 17 hours
[i] Rough Night (2017) [720p] [YTS AG] 737.07 MB 3856 2420 1 day 19 hours
[i] Security (2017) [720p] [YTS AG] 680.08 MB 3397 1111 5 days 7 hours
[i] Inconceivable (2017) [720p] [YTS AG] 777.71 MB 3109 1605 3 days 2 days
[i] Security (2017) [1080p] [YTS AG] 1.4 GB 2868 873 5 days 1 day
[i] Rough Night (2017) [1080p] [YTS AG] 1.53 GB 2682 1518 1 day 19 hours
[i] The Recall (2017) [720p] [YTS AG] 672.5 MB 2550 750 4 days 1 day
[i] The Recall (2017) [1080p] [YTS AG] 1.39 GB 2469 1416 4 days 3 days
[i] Inconceivable (2017) [1080p] [YTS AG] 1.61 GB 1913 747 3 days 15 hours