Independence Day Resurgence (2016) HDTS - X264 - Dual Audio [Hindi-English] AAC [PRiME]

DOWNLOAD TORRENT

Posted on June 30, 2016 in Movies » Sci-Fi , verified torrent

Size: 868 MB , Seeds: 51 , Peers: 15 ( Updated July 4, 2017 - Refresh )

* Download via Magnet Link * To download files you need a Bittorrent Client ,

Scrape History ( seeds + peers )

Internal Files

Independence Day Resurgence (2016) HDTS - X264 - Dual Audio [Hindi-English] AAC [PRiME]
Independence Day Resurgence (2016) HDTS - X264 - Dual Audio [Hindi-English] AAC [PRiME].mkv   845.36 MB
Sample.mkv   7.31 MB
Torrent Downloaded From peertorrent.com.txt   414 Byte

Hash Code

56c505610ec1e0b1259dfb530aa6ef7d6ab5533b

Description

Independence Day Resurgence (2016) HDTS - X264 - Dual Audio [Hindi-English] AAC [PRiME]



SCREENSHOT



SCREENSHOT



Format : Matroska

Format version : Version 4 / Version 2

File size : 845 MiB

Duration : 1h 50mn

Overall bit rate : 1 068 Kbps



Video

ID : 1

Format : AVC

Format/Info : Advanced Video Codec

Format profile : [email protected]/* */

Format settings, CABAC : Yes

Format settings, ReFrames : 5 frames

Codec ID : V_MPEG4/ISO/AVC

Duration : 1h 50mn

Bit rate : 810 Kbps

Width : 704 pixels

Height : 376 pixels

Display aspect ratio : 1.85:1

Frame rate mode : Constant

Frame rate : 30.000 fps

Color space : YUV

Chroma subsampling : 4:2:0

Bit depth : 8 bits

Scan type : Progressive

Bits/(Pixel*Frame) : 0.102

Stream size : 641 MiB (76%)



Audio #1

ID : 2

Format : AAC

Format/Info : Advanced Audio Codec

Format profile : LC

Codec ID : A_AAC

Duration : 1h 49mn

Bit rate : 128 Kbps

Channel(s) : 2 channels

Channel positions : Front: L R

Sampling rate : 44.1 KHz

Frame rate : 43.066 fps (1024 spf)

Compression mode : Lossy

Delay relative to video : 10ms

Stream size : 100 MiB (12%)

Title : Hindi [PRiME]

Language : Hindi



Audio #2

ID : 3

Format : AAC

Format/Info : Advanced Audio Codec

Format profile : LC

Codec ID : A_AAC

Duration : 1h 50mn

Bit rate : 128 Kbps

Channel(s) : 2 channels

Channel positions : Front: L R

Sampling rate : 44.1 KHz

Frame rate : 43.066 fps (1024 spf)

Compression mode : Lossy

Delay relative to video : 10ms

Stream size : 101 MiB (12%)

Title : English [PRiME]

Language : English

Source : DH (Thanks)




SCREENSHOT



Click Image To View Full Size



SCREENSHOT SCREENSHOT SCREENSHOT SCREENSHOT SCREENSHOT SCREENSHOT SCREENSHOT SCREENSHOT SCREENSHOT SCREENSHOT

Trackers

Refresh Leechers : Updated July 4, 2017

1. udp://tracker.coppersurfer.tk:6969/announce

2. udp://tracker.coppersurfer.tk:6969

3. udp://tracker.opentrackr.org:1337/announce

4. udp://zer0day.ch:1337/announce

5. udp://thetracker.org:80/announce

6. udp://tracker.aletorrenty.pl:2710/announce

7. udp://explodie.org:6969/announce

8. udp://p4p.arenabg.ch:1337/announce

9. udp://9.rarbg.to:2710/announce

10. udp://9.rarbg.me:2710/announce

11. udp://eddie4.nl:6969/announce

12. udp://tracker.sktorrent.net:6969/announce

13. udp://torrent.gresille.org:80/announce

14. udp://tracker.piratepublic.com:1337/announce

15. udp://tracker.leechers-paradise.org:6969/announce

Comments

You must log in to add a comment.

Embed Code

Sharing Widget

Related torrents

FILENAME SIZE SEEDS PEERS ADDED UPD
[i] Independence Day Resurgence (2016) HDTS x264 [Dual-Audio] [English + Hindi (Cam Cleaned)] - Downloadhub
posted by downloadhub in Movies - Action
759.66 MB 10 5 1 year 2 months
[i] Independence Day Resurgence 2016 HDTS -x264 - Zi$t-CTRC 690.3 MB 7 3 1 year 2 months
[i] Independence Day Resurgence (2016) - HDTS - 600MB - GoenWae 604.3 MB 5 0 1 year 2 months
[i] Independence Day Resurgence 2016 HDTS 500MB Ganool 500.15 MB 2 2 1 year 2 months

Top Movies ( auto generated report )

FILENAME SIZE SEEDS PEERS ADDED UPD
[i] Despicable Me 3 (2017) [1080p] [YTS AG] 1.36 GB 8482 3984 5 days 2 days
[i] Despicable Me 3 (2017) [720p] [YTS AG] 658.36 MB 7029 2538 5 days 19 hours
[i] Shock Wave (2017) [720p] [YTS AG] 874.7 MB 3224 1942 2 days 1 day
[i] A Ghost Story (2017) [720p] [YTS AG] 679.19 MB 2726 2073 4 days 3 days
[i] Revolt (2017) [720p] [YTS AG] 652.79 MB 2424 1114 2 days 1 day
[i] A Ghost Story (2017) [1080p] [YTS AG] 1.4 GB 2395 913 3 days 2 days
[i] Shock Wave (2017) [1080p] [YTS AG] 1.8 GB 2310 1258 2 days 1 day
[i] The Bad Batch (2016) [720p] [YTS AG] 884.03 MB 2034 964 2 days 1 day
[i] Killing.Gunther.2017.1080p.WEB-DL.DD5.1.H264-FGT 3.61 GB 1993 1371 2 days 1 day
[i] Goon Last of the Enforcers (2017) [720p] [YTS AG] 740.84 MB 1914 644 1 day 20 hours