Ice.Age.Collision.Course.2016.New.HDTS.XVID.AC3.HQ.Hive-CM8

DOWNLOAD TORRENT

Posted on August 7, 2016 in Movies » Animation , verified torrent

Size: 1.4 GB , Seeds: 15 , Peers: 3 ( Updated August 11, 2017 - Refresh )

* Download via Magnet Link * To download files you need a Bittorrent Client ,

Scrape History ( seeds + peers )

Internal Files

Ice.Age.Collision.Course.2016.New.HDTS.XVID.AC3.HQ.Hive-CM8
Ice.Age.Collision.Course.2016.New.HDTS.XVID.AC3.HQ.Hive-CM8.avi   1.38 GB
Ice.Age.Collision.Course.2016.New.HDTS.XVID.AC3.HQ.Hive-CM8.nfo   4.92 KB
Torrent Downloaded From peertorrent.com.txt   338 Byte
sample.avi   21.14 MB

Hash Code

7e659affcbfed3cc4ab98afb28a2e1270446adc6

Description

SCREENSHOT





http://www.imdb.com/title/tt3416828/





Manny, Diego, and Sid join up with Buck to fend off a meteor strike that would destroy the world.



Directors: Mike Thurmeier, Galen T. Chu

Writers: Michael J. Wilson (screenplay), Michael Berg (screenplay)

Stars: Ray Romano, Denis Leary, John Leguizamo

Genres: Animation | Adventure | Comedy | Family | Sci-Fi

Country: USA

Language: English





Ice.Age.Collision.Course.2016.New.HDTS.XVID.AC3.HQ.Hive-CM8



Thx Hive



CM8 Doing It Right The First Time



Sources:



Video: New Russian HDCAM

Audio: English Digital Line Audio (thx cpg)

thx



Notes:

waited for the better russian video, quality is amazing, nearly screener quality

no shaking,no focus issues, dark scenes are perfect,as perfect as a cam can be.



Encode:

as mentioned quality was already perfect only fixed brightness,contrast and rgb



Syncing Audio took me 12h wasnt funny at all to get it lipsync, after 6h i nearly gave up but i pushed through for you guys

additional 6h and all is lipsync.



the russian video was done with variable bitrate, it was a pita since framerate was moving around from 23-30 frame, plz guys use constant bitrate thx



well it took some work but the result is perfect

wont get better than this till retail

enjoy



ah before i forget have new mail adress and i need a new team.

Looking for guys who can get quality stuff, full cams hd prefered or dvd-r and ofc dvd-scr, english line audio or at least a good hqmic.

you have what it takes msg me under [email protected]/* */

the old addies are gone so only take the new one

thx



Video: 720x304 @bitrate 2000 2pass

Audio: English Digital Line Audio AC3 2.0

Sample: yes included





http://www.imdb.com/title/tt3416828/



General

Complete name : Ice.Age.Collision.Course.2016.New.HDTS.XVID.AC3.HQ.Hive-CM8.avi

Format : AVI

Format/Info : Audio Video Interleave

File size : 1.38 GiB

Duration : 1h 27mn

Overall bit rate : 2 266 Kbps

Writing application : Nandub v1.0rc2

Writing library : Nandub build 1853/release



Video

ID : 0

Format : MPEG-4 Visual

Format profile : Advanced [email protected]/* */

Format settings, BVOP : 2

Format settings, QPel : Yes

Format settings, GMC : No warppoints

Format settings, Matrix : Default (H.263)

Muxing mode : Packed bitstream

Codec ID : XVID

Codec ID/Hint : XviD

Duration : 1h 27mn

Bit rate : 2 000 Kbps

Width : 720 pixels

Height : 304 pixels

Display aspect ratio : 2.35:1

Frame rate : 25.000 fps

Color space : YUV

Chroma subsampling : 4:2:0

Bit depth : 8 bits

Scan type : Progressive

Compression mode : Lossy

Bits/(Pixel*Frame) : 0.365

Stream size : 1.22 GiB (88%)

Writing library : XviD 1.2.1 (UTC 2008-12-04)



Audio

ID : 1

Format : AC-3

Format/Info : Audio Coding 3

Mode extension : CM (complete main)

Format settings, Endianness : Big

Codec ID : 2000

Duration : 1h 27mn

Bit rate mode : Constant

Bit rate : 256 Kbps

Channel(s) : 2 channels

Channel positions : Front: L R

Sampling rate : 48.0 KHz

Bit depth : 16 bits

Compression mode : Lossy

Stream size : 160 MiB (11%)

Alignment : Split accross interleaves

Interleave, duration : 40 ms (1.00 video frame)

Interleave, preload duration : 500 ms





SCREENSHOT SCREENSHOT SCREENSHOT SCREENSHOT SCREENSHOT SCREENSHOT SCREENSHOT SCREENSHOT SCREENSHOT SCREENSHOT

Trackers

Refresh Leechers : Updated August 11, 2017

1. udp://tracker.coppersurfer.tk:6969/announce

2. udp://thetracker.org:80/announce

3. udp://tracker.coppersurfer.tk:6969

4. udp://tracker.leechers-paradise.org:6969/announce

5. udp://eddie4.nl:6969/announce

6. udp://zer0day.ch:1337/announce

7. udp://tracker.sktorrent.net:6969/announce

8. udp://9.rarbg.me:2710/announce

9. udp://9.rarbg.to:2710/announce

10. udp://torrent.gresille.org:80/announce

11. udp://tracker.aletorrenty.pl:2710/announce

12. udp://tracker.piratepublic.com:1337/announce

13. udp://tracker.opentrackr.org:1337/announce

14. udp://explodie.org:6969/announce

15. udp://p4p.arenabg.ch:1337/announce

Comments

You must log in to add a comment.

Embed Code

Sharing Widget

Related torrents

FILENAME SIZE SEEDS PEERS ADDED UPD
[i] Ice Age Collision Course (2016) [720p] [YTS AG] 694.28 MB 343 19 3 months 4 days
[i] Ice Age Collision Course (2016) [1080p] [YTS AG] 1.44 GB 331 21 3 months 4 days
[i] Ice Age: Collision Course (2016) 720p HDRiP - 850MB - ShAaNiG 851.3 MB 329 22 1 year 3 weeks
[i] Ice Age: Collision Course - L era glaciale - In rotta di Collisione (2016).H264.Italian.English.Ac3.5.1.sub.eng.iCV-MIRCrew
posted by robbyrs in Movies - Animation
1.43 GB 142 7 10 months 1 day
[i]
[i]
Ice Age Collision Course,2016 English CAMRip x264 797MB By TeriKasam mkv
posted by tash54ali in Movies - Animation , Quality: Audio 5/10 - Video 5/10
798.3 MB 53 7 1 year 2 months
[i] Ice Age Collision Course 2016 HD-TS x264-CPG 1.3 GB 43 12 1 year 1 month
[i] Ice Age Collision Course (2016) 720p BluRay x264 [Dual-Audio][Hindi 5 1 - English 5 1] ESubs - Downloadhub
posted by downloadhub in Movies - Animation
966.12 MB 20 13 10 months 1 day
[i] Ice.Age.Collision.Course.2016.BluRay.720p.DTS.AC3.x264-ETRG 3.66 GB 18 7 9 months 4 months
[i] Ice Age Collision Course 2016 READNFO 720p HDRIP X264 AC3 TiTAN.[PRiME] 2.41 GB 16 2 1 year 3 weeks
[i] Jay-Z and Linkin Park - Collision Course EP (2004 [email protected]) 50.89 MB 15 3 4 years 3 months

Top Movies ( auto generated report )

FILENAME SIZE SEEDS PEERS ADDED UPD
[i] Despicable Me 3 (2017) [1080p] [YTS AG] 1.36 GB 8482 3984 4 days 1 day
[i] Despicable Me 3 (2017) [720p] [YTS AG] 658.36 MB 7211 2899 4 days 12 hours
[i] Shock Wave (2017) [720p] [YTS AG] 874.7 MB 3224 1942 1 day 15 hours
[i] A Ghost Story (2017) [720p] [YTS AG] 679.19 MB 2726 2073 3 days 2 days
[i] Revolt (2017) [720p] [YTS AG] 652.79 MB 2424 1114 1 day 15 hours
[i] A Ghost Story (2017) [1080p] [YTS AG] 1.4 GB 2395 913 2 days 1 day
[i] Shock Wave (2017) [1080p] [YTS AG] 1.8 GB 2310 1258 1 day 15 hours
[i] The Bad Batch (2016) [720p] [YTS AG] 884.03 MB 2034 964 1 day 15 hours
[i] Killing.Gunther.2017.1080p.WEB-DL.DD5.1.H264-FGT 3.61 GB 1993 1371 1 day 14 hours
[i] Revolt (2017) [1080p] [YTS AG] 1.34 GB 1910 836 1 day 15 hours