Free Willy (1993) - HD 1080p.x265.AC3-Z@M@N

DOWNLOAD TORRENT

Posted on August 27, 2016 in Movies » Adventure , verified torrent

Size: 2.55 GB , Seeds: 0 , Peers: 0 ( Updated October 30, 2016 - Refresh )

Could not find any peer statistics from any torrent tracker.
This does not mean the torrent is dead.

* Download via Magnet Link * To download files you need a Bittorrent Client ,

Scrape History ( seeds + peers )

Internal Files

Free Willy (1993) - HD 1080p.x265.AC3-Z@M@N
Free Willy (1993) - HD 1080p.mkv   2.52 GB
Cover.jpg   508.05 KB
If you like my work.txt   33 Byte
SAMPLE.mkv   20.59 MB
Torrent downloaded from peertorrent.com.txt   0 Byte

Hash Code

f2fd70aba080e74d89bab9f9298b595fe82b028d

Description

SCREENSHOT



Free Willy (1993)



Adventure, Drama, Family



SCREENSHOT



General

Free Willy (1993) - HD 1080p.mkv

Format : Matroska

Format version : Version 4 / Version 2

File size : 2.52 GiB

Duration : 1h 51mn

Overall bit rate : 3 234 Kbps

Encoded date : UTC 2016-08-26 19:29:07

Writing application : mkvmerge v9.2.0 ('Photograph') 64bit

Writing library : libebml v1.3.3 + libmatroska v1.4.4

DURATION : 01:51:43.404000000

NUMBER_OF_FRAMES : 192461

NUMBER_OF_BYTES : 187695296



Video

ID : 1

Format : HEVC

Format/Info : High Efficiency Video Coding

Format profile : Main [email protected]/* */

Codec ID : V_MPEGH/ISO/HEVC

Duration : 1h 51mn

Bit rate : 2 946 Kbps

Width : 1 920 pixels

Height : 800 pixels

Display aspect ratio : 2.40:1

Frame rate mode : Constant

Frame rate : 23.976 fps

Color space : YUV

Chroma subsampling : 4:2:0

Bit depth : 10 bits

Bits/(Pixel*Frame) : 0.080

Stream size : 2.30 GiB (91%)

Writing library : x265 1.9+200-6098ba3e0cf16b11:[Windows][GCC 5.3.0][64 bit] 10bit





Audio

ID : 2

Format : AC-3

Format/Info : Audio Coding 3

Mode extension : CM (complete main)

Format settings, Endianness : Big

Codec ID : A_AC3

Duration : 1h 51mn

Bit rate mode : Constant

Bit rate : 224 Kbps

Channel(s) : 6 channels

Channel positions : Front: L C R, Side: L R, LFE

Sampling rate : 44.1 KHz

Bit depth : 16 bits

Compression mode : Lossy

Stream size : 179 MiB (7%)

Language : English

Default : No

Forced : No







SCREENSHOT



SCREENSHOTSCREENSHOTSCREENSHOTSCREENSHOTSCREENSHOT

SCREENSHOT



SCREENSHOT









SCREENSHOT



SCREENSHOT



please seeds after loading..To help others









IF YOU LIKE MY TORRENTS THEN PLEASE COMMENT



THANKS

Trackers

Refresh Leechers : Updated October 30, 2016

1. udp://tracker.opentrackr.org:1337/announce

Comments

You must log in to add a comment.

Embed Code

Sharing Widget

Related torrents

FILENAME SIZE SEEDS PEERS ADDED UPD
[i] Free Willy (1993) 1080p BrRip x264 - YIFY 1.65 GB 54 6 2 years 2 days
[i] Free Willy 1993 1080p BluRay x264-CiNEFiLE
posted by harks87 in Movies - Adventure
8.8 GB 0 0 2 years 2 days
[i] Free Willy 1993 1080p BluRay x264-CiNEFiLE
posted by harks87 in Movies - Adventure
17.57 GB 0 1 2 years 1 year

Top Movies ( auto generated report )

FILENAME SIZE SEEDS PEERS ADDED UPD
[i] Baywatch (2017) [720p] [YTS AG] 896.85 MB 13374 13009 1 day 20 hours
[i] Baywatch (2017) [1080p] [YTS AG] 1.85 GB 11328 9572 1 day 20 hours
[i] Security (2017) [720p] [YTS AG] 680.08 MB 5527 2295 3 days 2 days
[i] Security (2017) [1080p] [YTS AG] 1.4 GB 4273 1851 3 days 2 days
[i] Inconceivable (2017) [720p] [YTS AG] 777.71 MB 3109 1605 1 day 4 hours
[i] What.Happened.to.Monday.2017.WEBRip.x264-FGT[rarbg] 1.06 GB 2846 1500 1 day 21 hours
[i] The Recall (2017) [720p] [YTS AG] 672.5 MB 2707 1910 1 day 20 hours
[i] The Recall (2017) [1080p] [YTS AG] 1.39 GB 2469 1416 1 day 20 hours
[i] Inconceivable (2017) [1080p] [YTS AG] 1.61 GB 2453 1236 1 day 4 hours
[i] Kill Switch (2017) [720p] [YTS AG] 677.18 MB 2270 801 5 days 2 days