Cedar Rapids

DOWNLOAD TORRENT

Posted on May 19, 2017 in Movies » Misc

Size: 828.3 MB , Seeds: 0 , Peers: 0 ( Updated July 22, 2017 - Refresh )

Could not find any peer statistics from any torrent tracker.
This does not mean the torrent is dead.

* Download via Magnet Link * To download files you need a Bittorrent Client ,

Scrape History ( seeds + peers )

Internal Files

Cedar Rapids
CEDAR_RAPIDS_Title1.mp4   827.63 MB

Hash Code

5196ca1b86960d433f7025cc1fcd1481b9e480b4

Description

SCREENSHOT

[youtube]f9VspqcwtJQ[/youtube]

Cedar Rapids (2011)

R | 1h 27min | Comedy | 18 March 2011 (USA)

Tim Lippe has no idea what he's in for when he's sent to Cedar Rapids, Iowa to represent his company at an annual insurance convention, where he soon finds himself under the "guidance" of three convention veterans.

Director: Miguel Arteta

Writer: Phil Johnston

Stars: Ed Helms, John C. Reilly, Anne Heche

General

Complete name                            : Cedar Rapids\CEDAR_RAPIDS_Title1.mp4

Format                                   : MPEG-4

Format profile                           : Base Media

Codec ID                                 : isom (isom/iso2/avc1/mp41)

File size                                : 828 MiB

Duration                                 : 1 h 26 min

Overall bit rate                         : 1 332 kb/s

Movie name                               : CEDAR_RAPIDS

Genre                                    : Comedy

Writing application                      : Lavf54.6.100


Video

ID                                       : 1

Format                                   : AVC

Format/Info                              : Advanced Video Codec

Format profile                           : [email protected]/* */

Format settings, CABAC                   : No

Format settings, ReFrames                : 6 frames

Format settings, GOP                     : M=1, N=60

Codec ID                                 : avc1

Codec ID/Info                            : Advanced Video Coding

Duration                                 : 1 h 26 min

Bit rate                                 : 1 197 kb/s

Width                                    : 720 pixels

Height                                   : 404 pixels

Display aspect ratio                     : 16:9

Frame rate mode                          : Constant

Frame rate                               : 29.970 (30000/1001) FPS

Color space                              : YUV

Chroma subsampling                       : 4:2:0

Bit depth                                : 8 bits

Scan type                                : Progressive

Bits/(Pixel*Frame)                       : 0.137

Stream size                              : 744 MiB (90%)


Audio

ID                                       : 2

Format                                   : AAC

Format/Info                              : Advanced Audio Codec

Format profile                           : LC

Codec ID                                 : 40

Duration                                 : 1 h 26 min

Bit rate mode                            : Constant

Bit rate                                 : 128 kb/s

Channel(s)                               : 2 channels

Channel positions                        : Front: L R

Sampling rate                            : 44.1 kHz

Frame rate                               : 43.066 FPS (1024 spf)

Compression mode                         : Lossy

Stream size                              : 79.5 MiB (10%)

Default                                  : Yes

Alternate group                          : 1


Torrent location

https://www.1337x.to/torrent/2219351/Cedar-Rapids/

Trackers

Refresh Leechers : Updated July 22, 2017

1. http://explodie.org:6969/announce

2. http://tracker.tfile.me/announce

3. http://bigfoot1942.sektori.org:6969/announce

4. http://tracker2.wasabii.com.tw:6969/announce

5. http://tracker.mg64.net:6881/announce

6. http://bt.artvid.ru:6969/announce

7. http://tracker1.wasabii.com.tw:6969/announce

8. http://open.acgtracker.com:1096/announce

9. http://tracker.opentrackr.org/announce

10. http://mvgroup.org:2710/announce

11. udp://mgtracker.org:6969/announce

12. udp://asnet.pw:2710/announce

13. udp://tracker.mgtracker.org:2710/announce

14. udp://tracker4.piratux.com:6969/announce

15. udp://tracker.trackerfix.com:80/announce

16. udp://tracker.pomf.se:80/announce

17. udp://torrent.gresille.org:80/announce

18. udp://p4p.arenabg.com:1337

19. udp://ipv4.tracker.harry.lu:80/announce

20. udp://inferno.demonoid.ooo:3389/announce

21. udp://tracker.blackunicorn.xyz:6969/announce

22. udp://tracker.internetwarriors.net:1337/announce

23. udp://tracker.openbittorrent.com:80/announce

24. udp://eddie4.nl:6969/announce

25. udp://tracker.leechers-paradise.org:6969/announce

26. udp://tracker.opentrackr.org:1337/announce

27. udp://tracker.zer0day.to:1337/announce

28. udp://p4p.arenabg.ch:1337/announce

29. udp://tracker.coppersurfer.tk:6969/announce

30. udp://9.rarbg.to:2710/announce

31. udp://9.rarbg.com:2710/announce

32. udp://9.rarbg.me:2710/announce

33. udp://open.demonii.com:1337

34. udp://glotorrents.pw:6969/announce

35. http://tracker2.itzmx.com:6961/announce

36. http://tracker1.wasabii.com.tw:6969/announce

37. udp://9.rarbg.to:2710/announce

38. udp://tracker.coppersurfer.tk:6969/announce

39. udp://tracker.opentrackr.org:1337/announce

Comments

You must log in to add a comment.

Embed Code

Sharing Widget

Related torrents

FILENAME SIZE SEEDS PEERS ADDED UPD
[i] Cedar Rapids[2011]BRRip XviD-ExtraTorrentRG 703.3 MB 1 0 4 years 2 months
[i] Cedar Rapids (2011) [DVDRip][DUAL][Eng-Spa] 1.47 GB 0 0 5 years 3 months
[i] Convencion.En.Cedar.Rapids.2011.SPANISH.BRSCREENER.XVID [SalaDiv 1.36 GB 0 0 6 years 4 months
[i] Cedar.Rapids.2011.Swesub.Avi-Skoj 963.3 MB 0 0 5 years 3 months
[i] Cedar.Rapids.2011.LIMITED.MULTISUBS.PAL.DVDR-AMIRITE 4.45 GB 0 0 5 years 3 months
[i] Cedar Rapids 2011 720p BRRip x264 AC3 dxva-HDLiTE 1.81 GB 0 0 6 years 4 months
[i] Cedar Rapids 2011 720p BRRip XviD (avi) [TFRG] 1.33 GB 0 0 6 years 4 months
[i] CEDAR RAPIDS [2011] DVD Rip Xvid [StB] 700.3 MB 0 0 6 years 4 months
[i] Cedar Rapids 2011 BRRip XviD AC3 MRX (Kingdom-Release) 1.16 GB 0 0 6 years 4 months
[i] Cedar Rapids 2011 BRRip AAC H264-ETERN4L (Kingdom-Release) 3.99 GB 0 0 6 years 4 months

Top Movies ( auto generated report )

FILENAME SIZE SEEDS PEERS ADDED UPD
[i] Security (2017) [720p] [YTS AG] 680.08 MB 5527 2295 1 day 7 hours
[i] Security (2017) [1080p] [YTS AG] 1.4 GB 4273 1851 1 day 7 hours
[i] Kill Switch (2017) [720p] [YTS AG] 677.18 MB 2270 801 3 days 19 hours
[i] Baywatch.2017.720p.WEB-DL.H264.AC3-EVO[EtHD] 3.59 GB 2236 653 3 days 2 days
[i] Baywatch.2017.WEB-DL.XviD.MP3-FGT [rarbg] 1.47 GB 2176 806 3 days 2 days
[i] Oceans Rising (2017) [720p] [YTS AG] 642.27 MB 2095 840 1 day 7 hours
[i] Goon.Last.of.the.Enforcers.2017.WEB-DL.x264-FGT[rarbg] 887.65 MB 1722 953 3 days 2 days
[i] Baywatch.2017.WEB-DL.x264-FGT [rarbg] 1016.65 MB 1654 782 3 days 2 days
[i] The Dark Tower (2017) 720p TS 700MB - MkvCage 701.3 MB 1470 532 1 day 12 hours
[i] Oceans Rising (2017) [1080p] [YTS AG] 1.32 GB 1594 778 1 day 7 hours