Antisocial 2013 720p BRRip x264-Fastbet99

DOWNLOAD TORRENT

Posted by Fastbet99 •745 on February 5, 2014 in Movies » Horror , verified torrent

Size: 1.07 GB , Seeds: 0 , Peers: 0 ( Updated July 11, 2017 - Refresh )

Could not find any peer statistics from any torrent tracker.
This does not mean the torrent is dead.

* Download via Magnet Link * To download files you need a Bittorrent Client ,

Scrape History ( seeds + peers )

Internal Files

Antisocial.2013.720p.BRRip.x264-Fastbet99
Antisocial.2013.720p.BRRip.x264-Fastbet99.mp4   1.07 GB
Antisocial.2013.720p.BRRip.x264-Fastbet99.mp4.jpg   119.72 KB
NFO.txt   2.53 KB
read me.txt   120 Byte

Hash Code

a4657ccb453191c8bae5ab636131f570010f6e31

Description

SCREENSHOT

Antisocial (2013)

IMDB Info : http://www.imdb.com/title/tt2772092

Source : PFa (Thanks)
Complete name : Antisocial.2013.720p.BRRip.x264-Fastbet99.mp4
Format : MPEG-4
Format profile : Base Media
Codec ID : isom
File size : 1.07 GiB
Duration : 1h 29mn
Overall bit rate mode : Variable
Overall bit rate : 1 721 Kbps

Video
ID : 1
Format : AVC
Format/Info : Advanced Video Codec
Format profile : [email protected]
Format settings, CABAC : Yes
Format settings, ReFrames : 4 frames
Codec ID : avc1
Codec ID/Info : Advanced Video Coding
Duration : 1h 29mn
Bit rate : 1 623 Kbps
Maximum bit rate : 18.2 Mbps
Width : 1 280 pixels
Height : 672 pixels
Display aspect ratio : 1.905
Frame rate mode : Constant
Frame rate : 24.000 fps
Color space : YUV
Chroma subsampling : 4:2:0
Bit depth : 8 bits
Scan type : Progressive
Bits/(Pixel*Frame) : 0.079
Stream size : 1.01 GiB (94%)
Writing library : x264 core 138 r2358 9e941d1

Audio
ID : 2
Format : AAC
Format/Info : Advanced Audio Codec
Format profile : LC
Codec ID : 40
Duration : 1h 29mn
Bit rate mode : Variable
Bit rate : 96.0 Kbps
Maximum bit rate : 139 Kbps
Channel count : 2 channels
Channel positions : Front: L R
Sampling rate : 48.0 KHz
Compression mode : Lossy
Stream size : 61.2 MiB (6%)
Encoder : Fastbet99
SCREENSHOT

Trackers

Refresh Leechers : Updated July 11, 2017

1. udp://tracker.openbittorrent.com:80/announce

2. udp://tracker.publicbt.com:80/announce

3. udp://open.demonii.com:1337/announce

4. udp://tracker.coppersurfer.tk:6969/announce

5. http://p2pdl.com:2710/announce

6. udp://tracker.yify-torrents.com/announce

7. udp://12.rarbg.me:80/announce

8. udp://tracker.publicbt.com:80

Comments

You must log in to add a comment.

Embed Code

Sharing Widget

Related torrents

FILENAME SIZE SEEDS PEERS ADDED UPD
[i] Antisocial (2013) 720p BrRip x264 - YIFY 700.5 MB 3 0 3 years 1 month
[i] Antisocial.2013.720p.BRRiP.XViD.AC3-LEGi0N 2.75 GB 0 0 3 years 1 month
[i] Antisocial 2013 720P BRRiP XVID AC3-MAJESTIC 2.71 GB 0 0 3 years 1 month
[i] Antisocial.2013.720P.BRRiP.XVID.AC3-MAJESTIC 2.71 GB 0 0 3 years 1 month

Top Movies ( auto generated report )

FILENAME SIZE SEEDS PEERS ADDED UPD
[i] Baywatch (2017) [720p] [YTS AG] 896.85 MB 14189 10566 3 days 1 day
[i] Baywatch (2017) [1080p] [YTS AG] 1.85 GB 11328 9572 3 days 2 days
[i] Security (2017) [720p] [YTS AG] 680.08 MB 3842 803 4 days 5 hours
[i] Security (2017) [1080p] [YTS AG] 1.4 GB 2868 873 4 days 10 hours
[i] Inconceivable (2017) [720p] [YTS AG] 777.71 MB 3109 1605 2 days 1 day
[i] What.Happened.to.Monday.2017.WEBRip.x264-FGT[rarbg] 1.06 GB 2846 1500 3 days 2 days
[i] The Recall (2017) [720p] [YTS AG] 672.5 MB 2550 750 3 days 8 hours
[i] The Recall (2017) [1080p] [YTS AG] 1.39 GB 2469 1416 3 days 2 days
[i] Inconceivable (2017) [1080p] [YTS AG] 1.61 GB 2453 1236 2 days 1 day
[i] Rough Night (2017) [720p] [YTS AG] 737.07 MB 2762 2962 12 hours 10 hours