All the Way 2016 WEBRip x264-FGT

DOWNLOAD TORRENT

Posted on May 24, 2016 in Movies » Misc , verified torrent

Size: 1.13 GB , Seeds: 6 , Peers: 0 ( Updated May 28, 2017 - Refresh )

* Download via Magnet Link * To download files you need a Bittorrent Client ,

Scrape History ( seeds + peers )

Internal Files

All.the.Way.2016.WEBRip.x264-FGT
All.the.Way.2016.WEBRip.x264-FGT.mp4   1.12 GB
All.the.Way.2016.WEBRip.x264-FGT.nfo   3.89 KB
English.srt   183.76 KB
RARBG.com.txt   34 Byte

Hash Code

0fe252017a3e8b9bb85ca087e280f394195a637b

Description





https://rarbg.to/





SCREENSHOT

SCREENSHOT

SCREENSHOT

SCREENSHOT

SCREENSHOT

SCREENSHOT







[mediainfo]

Video

ID : 1

Format : AVC

Format/Info : Advanced Video Codec

Format profile : [email protected]

Format settings, CABAC : Yes

Format settings, ReFrames : 5 frames

Codec ID : avc1

Codec ID/Info : Advanced Video Coding

Duration : 2h 11mn

Bit rate : 1 100 Kbps

Width : 720 pixels

Height : 400 pixels

Display aspect ratio : 16:9

Frame rate mode : Constant

Frame rate : 23.976 (24000/1001) fps

Color space : YUV

Chroma subsampling : 4:2:0

Bit depth : 8 bits

Scan type : Progressive

Bits/(Pixel*Frame) : 0.159

Stream size : 1 023 MiB (89%)

Title : All.the.Way.2016.WEBRip.x264-FGT

Writing library : x264 core 148 r2638 7599210

Encoding settings : cabac=1 / ref=5 / deblock=1:-2:-2 / analyse=0x3:0x113 / me=umh / subme=8 / psy=1 / psy_rd=0.90:0.00 / mixed_ref=1 / me_range=16 / chroma_me=1 / trellis=1 / 8x8dct=1 / cqm=0 / deadzone=21,11 / fast_pskip=1 / chroma_qp_offset=-2 / threads=8 / lookahead_threads=2 / sliced_threads=0 / nr=0 / decimate=1 / interlaced=0 / bluray_compat=0 / constrained_intra=0 / bframes=3 / b_pyramid=2 / b_adapt=2 / b_bias=0 / direct=3 / weightb=1 / open_gop=0 / weightp=2 / keyint=250 / keyint_min=25 / scenecut=40 / intra_refresh=0 / rc_lookahead=50 / rc=abr / mbtree=1 / bitrate=1100 / ratetol=1.0 / qcomp=0.60 / qpmin=0 / qpmax=69 / qpstep=4 / vbv_maxrate=31250 / vbv_bufsize=31250 / nal_hrd=none / filler=0 / ip_ratio=1.40 / aq=1:1.00



Audio

ID : 2

Format : AAC

Format/Info : Advanced Audio Codec

Format profile : LC

Codec ID : 40

Duration : 2h 11mn

Bit rate mode : Variable

Bit rate : 128 Kbps

Maximum bit rate : 31.3 Mbps

Channel(s) : 2 channels

Channel positions : Front: L R

Sampling rate : 44.1 KHz

Frame rate : 43.066 fps (1024 spf)

Compression mode : Lossy

Stream size : 121 MiB (10%)

Title : All.the.Way.2016.WEBRip.x264-FGT

Language : English

Default : Yes

Alternate group : 1







[/mediainfo]

Torrent location

http://kat.cr/all-the-way-2016-webrip-x264-fgt-t12643017.html

Trackers

Refresh Leechers : Updated May 28, 2017

1. udp://tracker.opentrackr.org:1337/announce

2. udp://tracker.coppersurfer.tk:6969/announce

3. udp://tracker.openbittorrent.com:80/announce

4. udp://glotorrents.pw:6969/announce

5. udp://tracker.publicbt.com:80/announce

6. http://tracker.trackerfix.com/announce

7. udp://9.rarbg.me:2710/announce

8. udp://9.rarbg.to:2710/announce

Comments

You must log in to add a comment.

Embed Code

Sharing Widget

Related torrents

FILENAME SIZE SEEDS PEERS ADDED UPD
[i] Lady Macbeth (2016) [1080p] [YTS AG] 1.34 GB 1468 636 2 days 1 day
[i] Lady Macbeth (2016) [720p] [YTS AG] 641.34 MB 1441 830 2 days 1 day
[i]
[i]
The Curse of Sleeping Beauty (2016) [720p] [YTS AG]
Movies - Mystery , Quality: Audio 9/10 - Video 9/10
642.98 MB 1185 210 1 week 1 week
[i] Boyka Undisputed IV (2016) [720p] [YTS AG] 671.02 MB 1047 185 2 weeks 6 days
[i] Boyka Undisputed IV (2016) [1080p] [YTS AG] 1.38 GB 936 164 2 weeks 6 days
[i] The Curse of Sleeping Beauty (2016) [1080p] [YTS AG] 1.32 GB 877 195 1 week 1 week
[i] Born in China (2016) [1080p] [YTS AG] 1.21 GB 830 828 21 hours 19 hours
[i] Tonight She Comes (2016) [720p] [YTS AG] 616.92 MB 519 86 4 weeks 2 weeks
[i] Sleight (2016) [1080p] [YTS AG] 1.36 GB 509 98 1 month 2 weeks
[i] Wazir (2016) [720p] [YTS AG] 768.62 MB 463 57 1 month 1 week

Top Movies ( auto generated report )

FILENAME SIZE SEEDS PEERS ADDED UPD
[i] Baywatch (2017) [720p] [YTS AG] 896.85 MB 12160 7311 3 days 8 hours
[i] Baywatch (2017) [1080p] [YTS AG] 1.85 GB 11328 9572 3 days 2 days
[i] Security (2017) [720p] [YTS AG] 680.08 MB 3842 803 4 days 14 hours
[i] Security (2017) [1080p] [YTS AG] 1.4 GB 2868 873 4 days 20 hours
[i] Inconceivable (2017) [720p] [YTS AG] 777.71 MB 3109 1605 2 days 1 day
[i] What.Happened.to.Monday.2017.WEBRip.x264-FGT[rarbg] 1.06 GB 2846 1500 3 days 2 days
[i] The Recall (2017) [720p] [YTS AG] 672.5 MB 2550 750 3 days 17 hours
[i] The Recall (2017) [1080p] [YTS AG] 1.39 GB 2469 1416 3 days 2 days
[i] Inconceivable (2017) [1080p] [YTS AG] 1.61 GB 2453 1236 2 days 1 day
[i] Rough Night (2017) [720p] [YTS AG] 737.07 MB 2762 2962 21 hours 19 hours